АКБ0048 / AKB0048 (Кавамори Сёдзи) [TV] [13 из 13] [Полухардсаб] [RUS(int), JAP+SUB] [2012, идолы, меха, фантастика, музыкальный, BDRip] [HWP]

Ответить на тему
Статистика раздачи
Размер:  4,79 GB   |    Зарегистрирован:  11 дней   |    Скачан:  0 раз

Полного источника не было: Никогда

 
   
 
 
Автор Сообщение

star21 ®

Пол: Не указан

Стаж: 2 года 6 месяцев

Сообщений: 519076

Создавать темы 16-Май-2018 12:55

[Цитировать]

Страна: Япония
Год выпуска: 2012 г.
Жанр: Идолы, меха, фантастика, музыкальный
Тип: TV
Продолжительность: 13 эпизодов по ~24 минуты
Режиссер: Кавамори Сёдзи
Студия: AKB0048 Production Committee, GANSIS, Satelight, Starchild Recordsworld-art | AniDB | MyAnimeList | Офиц. сайтПеревод:YakuSub Studio & OWA
Редакторы: KeeperRus, KopBuH, Перевод песен: mbillika, Philcher, Переводчик: Nika_Elrik, Оформление: KeeperRus Озвучка: Get Smart Group
- одноголосая (жен.): Persona99
По переводу: NHK47 [akihabara48]
Тех. работы: Дмитрий ЛеманнОписание : После очередной мировой войны человечество потеряло родную планету и оказалось разбросано по космосу. Большинство колоний стали сырьевыми придатками, жители которых должны круглосуточно вкалывать на новых хозяев жизни. Чтобы работники не распускались, на большинстве планет Галактического Альянса введен драконовский закон «О запрете развлечений». Нельзя собираться вместе, петь, плясать, вообще публично радоваться. Нарушителей карают как полицейские, так и армейские силы. Но вся Галактика знает партизан шоу-бизнеса, террористов любви, прекрасных борцов с тоской и грустью — подпольную девичью группу AKB0048, что ведет родословную от легендарной поп-группы XXI века!На вершине нового движения — лучшие артистки, принявшие имена идолов «той самой» АКВ48, чуть ниже — продюсеры и стажеры, далее ученицы, прибывающие отовсюду. Разумеется, у группы есть мощное военно-техническое прикрытие — ведь каждый концерт на запретных мирах превращается в войсковую операцию. Впрочем, Оринэ, Юка и Нагиса — обычные девчонки с шахтерской планеты — не знали таких подробностей, но все равно примкнули к АКВ при первом удобном случае, ибо тоже хотят песней и музыкой бороться с теми, кто поработил человечество. Сила в правде, а правда в том, что тоска и уныние — смертный грех!Автор рипа и релиза : Страник 2.0Качество: BDRip (Исходник: BDRemux - AKB0048 (2012) S01 1080p USA Bluray Remux AVC DTS-MA - BluDragon)
Тип релиза: Полухадсаб (Надписи и песни)
Формат видео: AVI
Наличие линковки: Нет
Видео: XVID, 720x400 (16:9), 1766 kbps, 23.976 fps, 8bit
Аудио 1: Русский, AC-3, 192 Кбит/с, 48.0 Hz, 2 ch (в составе контейнера)
Аудио 2: Японский, AC-3, 192 Кбит/с, 48.0 Hz, 2 ch (в составе контейнера)
Субтитры (SRT): Русские (внешним фаилом)

Названия эпизодов

01. Заветная мечта
02. Свет избранных
03. Звёздный отбор
04. Я не подведу их
05. Выходной
06. Первый хендшейк
07. Кирара Наследия
08. Это имя, чьё оно?
09. Душевная связь
10. Волны волшебства
11. Возвращение на Ланкастар
12. Айдолы, что поёт о любви
13. Ради улыбок

Знаете ли вы что...

Аниме-сериал, вдохновлённый известной японской музыкальной группой AKB48. Аниме было создано студией Satelight, первый сезон транслировался с апреля по июль 2012 года, второй сезон с января по март 2013 года. Сериал является рекламой AKB48.Авторы не скрывали, что сериал являлся рекламой идол-группы AKB48, «фабрики звезд», состоявшей из 4 команд по 16 основных участниц (сэнбацу) и большой группы учениц-кэнкюсэй.В сериале артисток основного состава озвучивали известные сейю, а молодых героинь – реальные члены AKB48, они же исполняли песни.

Скриншоты

MediaInfo

General
Complete name : E:/Torrent_2/AKB0048 [s01] (2012, XviD BDRip, RUS JAP+SUB) [Stranik 2.0] [Persona99.GSG]/AKB0048 [ТВ-1] - 01. Uneraseable Dream [Persona99.GSG].avi
Format : AVI
Format/Info : Audio Video Interleave
File size : 439 MiB
Duration : 28mn 21s
Overall bit rate : 2 165 Kbps
Writing application : VirtualDubMod 1.5.10.3 (build 2550/release)
Writing library : VirtualDubMod build 2550/release Video #0
ID : 0
Format : MPEG-4 Visual
Format profile : Advanced Simple@L5
Format settings, BVOP : 2
Format settings, QPel : No
Format settings, GMC : No warppoints
Format settings, Matrix : Custom
Codec ID : XVID
Codec ID/Hint : XviD
Duration : 28mn 21s
Bit rate : 1 766 Kbps
Width : 720 pixels
Height : 400 pixels
Display aspect ratio : 16:9
Frame rate : 23.976 fps
Color space : YUV
Chroma subsampling : 4:2:0
Bit depth : 8 bits
Scan type : Progressive
Compression mode : Lossy
Bits/(Pixel*Frame) : 0.256
Stream size : 358 MiB (82%)
Writing library : XviD 67 Audio #1
ID : 1
Format : AC-3
Format/Info : Audio Coding 3
Mode extension : CM (complete main)
Format settings, Endianness : Big
Codec ID : 2000
Duration : 28mn 21s
Bit rate mode : Constant
Bit rate : 192 Kbps
Channel(s) : 2 channels
Channel positions : Front: L R
Sampling rate : 48.0 KHz
Bit depth : 16 bits
Compression mode : Lossy
Stream size : 38.9 MiB (9%)
Alignment : Split accross interleaves
Interleave, duration : 42 ms (1.00 video frame)
Interleave, preload duration : 500 ms Audio #2
ID : 2
Format : AC-3
Format/Info : Audio Coding 3
Mode extension : CM (complete main)
Format settings, Endianness : Big
Codec ID : 2000
Duration : 28mn 21s
Bit rate mode : Constant
Bit rate : 192 Kbps
Channel(s) : 2 channels
Channel positions : Front: L R
Sampling rate : 48.0 KHz
Bit depth : 16 bits
Compression mode : Lossy
Stream size : 38.9 MiB (9%)
Alignment : Split accross interleaves
Interleave, duration : 42 ms (1.00 video frame)
Interleave, preload duration : 500 ms

Отличия от других раздач

Страник 2.0 - http://rutracker.org/forum/viewtopic.php?t=4882226 - альтернативная озвучка
Моя максимальная скорость отдачи 100КБ/c
Раздаю с 7:00 до 00:00 по Москве

Для скачки контента: [Установить программу-клиент] и кликнуть по - Скачать

[asmlocator.ru].t532655.torrent 
Торрент: Зарегистрирован [ 2018-05-16 12:55 ] · C21FED6F2DF7118A9F8E009D16165EC9DE96267F

Скачать .torrent

Скачать

15 KB

Статус: проверено
Скачан: 0 раз
Размер: 4,79 GB
terms.php
[Профиль] [ЛС]
Показать сообщения:    
Ответить на тему

Текущее время: 28-Май 09:41

Часовой пояс: UTC ± 0



Вы не можете начинать темы
Вы не можете отвечать на сообщения
Вы не можете редактировать свои сообщения
Вы не можете удалять свои сообщения
Вы не можете голосовать в опросах
Вы не можете прикреплять файлы к сообщениям
Вы можете скачивать файлы