Клубная жизнь / Clubland (Мэри Ламберт / Mary Lambert) [1999, США, Музыкальная драма, VHSRip] DVO (Екатеринбург Арт) + Original Eng

Ответить на тему
Статистика раздачи
Размер:  889 MB   |    Зарегистрирован:  12 дней   |    Скачан:  0 раз

Полного источника не было: Никогда

 
   
 
 
Автор Сообщение

star21 ®

Пол: Не указан

Стаж: 2 года 6 месяцев

Сообщений: 519076

Создавать темы 16-Май-2018 08:45

[Цитировать]

Клубная жизнь / Clubland Страна: США
Жанр: Музыкальная драма
Год выпуска: 1999
Продолжительность: 01:35:47Перевод: Профессиональный (двухголосый закадровый) Екатеринбург Арт
Субтитры: нет
Оригинальная аудиодорожка: английскийРежиссер: Мэри Ламберт / Mary LambertВ ролях: Джимми Такетт, Брэд Хант, Родни Истман, Бадди Куэйд, Скот Джеймс, Фил Букман, Хэзер Стивенс, Лиза Робин Келли, Лори Петти, Джон Скларофф, Стивен Тайлер, Алексис АркеттОписание: Находясь на пороге большого, настоящего успеха, рок-музыкант Кеннеди Джонсон разрывается между любовью к официантке Софи и искушениями, сопровождающими головокружительный взлет новой звезды. Ведь его хвалят такие знаменитости, как Стивен Тайлер из «AEROSMITH».А популярная певица Индия явно проявляет к Кеннеди повышенный интерес. Что же важнее — успех любой ценой или отношения с любимой девушкой и родным братом, неудачливым рок-менеджером?Прокладывая свой путь сквозь закулисье самых модных клубов Лос-Анджелеса, лавируя между наркоторговцами и акулами шоу-бизнеса, кружась в водовороте секса, музыки, вечеринок и интриг, Кеннеди никак не может сделать свой выбор…Доп. информация: Дорожка с DVO синхронизирована и наложена ale_x2008 при помощи Adobe Audition, Sony Vegas и VirtualDubMod.За оцифрованную с VHS дорожку благодарим - FikaloidРелиз Сэмпл: https://yadi.sk/i/snyVexGM3VxLFqКачество видео: VHSRip
Формат видео: AVIВидео: XviD build 73, 512x384 (1.33:1), 23.976 fps, 898 kbps avg, 0.19 bit/pixel
Аудио: AC3 Dolby Digital, 48000Hz, 2/0 (L,R) ch (stereo), 192.00 kbps avg
Аудио 2: AC3 Dolby Digital, 48000Hz, 2/0 (L,R) ch, 192.00 kbps avg

MediaInfo

Клубная жизнь (Clubland) [by ale_x2008].aviFormat                      : AVIFormat/Info                 : Audio Video InterleaveFile size                   : 889 MiBDuration                    : 1 h 35 minOverall bit rate            : 1 297 kb/sMovie name                  : Клубная жизнь (Clubland) [by ale_x2008]Director                    : by ale_x2008Writing application         : VirtualDubMod 1.5.10.2 (build 2540/release)Copyright                   : Edich2Comment                     : Rutracker.orgVideoID                          : 0Format                      : MPEG-4 VisualFormat profile              : Advanced Simple@L5Format settings             : BVOP2 / Custom MatrixFormat settings, BVOP       : 2Format settings, QPel       : NoFormat settings, GMC        : No warppointsFormat settings, Matrix     : CustomCodec ID                    : XVIDCodec ID/Hint               : XviDDuration                    : 1 h 35 minBit rate                    : 899 kb/sWidth                       : 512 pixelsHeight                      : 384 pixelsDisplay aspect ratio        : 4:3Frame rate                  : 23.976 (24000/1001) FPSColor space                 : YUVChroma subsampling          : 4:2:0Bit depth                   : 8 bitsScan type                   : ProgressiveCompression mode            : LossyBits/(Pixel*Frame)          : 0.191Stream size                 : 616 MiB (69%)Writing library             : XviD 73Audio #1ID                          : 1Format                      : AC-3Format/Info                 : Audio Coding 3Codec ID                    : 2000Duration                    : 1 h 35 minBit rate mode               : ConstantBit rate                    : 192 kb/sChannel(s)                  : 2 channelsChannel positions           : Front: L RSampling rate               : 48.0 kHzFrame rate                  : 31.250 FPS (1536 SPF)Bit depth                   : 16 bitsCompression mode            : LossyStream size                 : 132 MiB (15%)Alignment                   : Split accross interleavesInterleave, duration        : 42  ms (1.00 video frame)Interleave, preload duratio : 500  msService kind                : Complete MainAudio #2ID                          : 2Format                      : AC-3Format/Info                 : Audio Coding 3Codec ID                    : 2000Duration                    : 1 h 35 minBit rate mode               : ConstantBit rate                    : 192 kb/sChannel(s)                  : 2 channelsChannel positions           : Front: L RSampling rate               : 48.0 kHzFrame rate                  : 31.250 FPS (1536 SPF)Bit depth                   : 16 bitsCompression mode            : LossyStream size                 : 132 MiB (15%)Alignment                   : Split accross interleavesInterleave, duration        : 42  ms (1.00 video frame)Interleave, preload duratio : 500  msService kind                : Complete Main

Скриншоты

Для скачки контента: [Установить программу-клиент] и кликнуть по - Скачать

[asmlocator.ru].t532551.torrent 
Торрент: Зарегистрирован [ 2018-05-16 08:45 ] · 34C7F1274D5CE3A07D95E42827A8EDE1C85EA259

Скачать .torrent

Скачать

18 KB

Статус: проверено
Скачан: 0 раз
Размер: 889 MB
terms.php
[Профиль] [ЛС]
Показать сообщения:    
Ответить на тему

Текущее время: 28-Май 09:34

Часовой пояс: UTC ± 0



Вы не можете начинать темы
Вы не можете отвечать на сообщения
Вы не можете редактировать свои сообщения
Вы не можете удалять свои сообщения
Вы не можете голосовать в опросах
Вы не можете прикреплять файлы к сообщениям
Вы можете скачивать файлы