Валерия и неделя чудес / Valerie a týden divu / Valerie and Her Week of Wonders (Яромил Иреш /Jaromil Jiresr) [1970, Чехословакия, Фэнтези, Драма, Приключения, DVD9(Custom)]Avo(А.Алексеев) + Sub Rus, Eng + Original Cze / Criterion Collection#761

Ответить на тему
Статистика раздачи
Размер:  7,66 GB   |    Зарегистрирован:  12 дней   |    Скачан:  0 раз

Полного источника не было: Никогда

 
   
 
 
Автор Сообщение

star21 ®

Пол: Не указан

Стаж: 2 года 6 месяцев

Сообщений: 519076

Создавать темы 15-Май-2018 20:10

[Цитировать]

Валерия и неделя чудес / Valerie a týden divu / Valerie and Her Week of Wonders / Criterion Collection#761 Страна:ЧехословакияСтудия:Filmové Studio Barrandov.Жанр:Ужасы, Фэнтези, Драма, ПриключенияГод выпуска:1970
Продолжительность:01:16:54Производство:The Criterion Collection #761Перевод:Авторский (одноголосый закадровый) Антон АлексеевСубтитры:Русские, АнглийскиеПремьера (мир):16.10.1970
Режиссер:Яромил Иреш /Jaromil JiresrВ ролях:Ярослава Шаллерова, Гелена Анижова, Петр Копржива, Иржи Прымек, Ян Клусак, Либусе Команцова, Карел Энгель, Алена Стоякова, Отто Градецкий, Мартин ВиэльгусОписание:Фильм ужасов про 13-летнюю девочку Валерию, вступающую во взрослую жизнь и переживающую первые любовные увлечения. Фильм находится на грани реальности и сна, сказки, сомнамбулической лирики и ночных кошмаров, пронизанных сексуальными откровениями подсознания.[imdb]http://www.imdb.com/title/tt0066516[/imdb] Доп. информация:Исходник найден в сети.Звук и субтитры с треккера.Огромное Спасибо Всем, без чьей помощи этот релиз не состоялся бы!Сценарий:Яромил Иреш, Эстер Крумбахова, Витезслав Незвал Продюсер:Иржи БечкаОператор:Ян ЦурикКомпозитор:Любош Фишер, Ян КлусакХудожник:Эстер Крумбахова, Ян Олива, Эва ЛацкингероваМонтаж:Йозеф Валусяк

Награды и номинации

Рецензия

Софт

PgcDemux 1.2.0.5 -> разделение компонентов диска на файлы.
BeHappy - AC3 -> Wav.
Sound Forge pro 10 -> синхронизация звука.Minnetonka SurCode - Wav -> AC3.Subtitle Workshop, MaestroSBT, DVD SubEdit -> (субтитры).
MuxMan DVD authoring Professional -> мультиплексирование и авторинг.
DVD LAB -> мультиплексирование и авторинг.DVDRemake Pro 3.6.4 -> реавторинг DVD.DVD Shrink 3.2 -> Сэмпл. Дополнительные материалы.

Бонусы:(С переводом)

-- Three early shorts by director Jaromil Jires: Uncle (1959)-РУССКИЕ СУБТИТРЫ, Footprints (1960)-РУССКИЕ СУБТИТРЫ, and The Hall of Lost Footsteps (1960)-РУССКИЕ СУБТИТРЫ.
--New interview with Czechoslovak film scholar Peter Hames
--Interviews from 2006 with actors Jaroslava Schallerova and Jan Klusak
--Alternate 2007 psych-folk soundtrack to the film by the Valerie Project, with a new video piece on the music’s origins
Меню:Английский, статичное, озвученное. Тип релиза:DVD9 (Custom)
Контейнер:DVD-Video
Видео:NTSC 4:3 (720x480) VBR, 7216 Кбит/сек, 23,976 (24000/1001) кадра/сек Аудио 1:Русский:AC3, 1 ch, 48.0 KHz, 192 Кбит/сек / Авторский (одноголосый закадровый) Антон АлексеевАудио 2:Чешский:AC3, 1 ch, 48.0 KHz, 384 Кбит/сек / ОригиналАудио 3:Чешский:AC3, 2 ch, 48.0 KHz, 384 Кбит/сек / Музыкальное сопровождение Valerie Project ScoreФормат субтитров:prerendered (DVD/IDX+SUB)

Dvd Info

Title: Valerie and Her Week of Wonders DVD-9_Custom_Criterion#761
Size: 7.66 Gb ( 8 033 310,00 KBytes ) - DVD-9
Enabled regions: 1, 2, 3, 4, 5, 6, 7, 8VTS_01 :
Play Length: 00:00:00
Video: NTSC 4:3 (720x480) VBRVTS_02 :
Play Length: 01:16:54
Video: NTSC 4:3 (720x480) VBR
Audio:
Russian (Dolby AC3, 1 ch)
Czech(Ceske) (Dolby AC3, 1 ch)
Czech(Ceske) (Dolby AC3, 2 ch)
Subtitles:
Russian
EnglishVTS_03 :
Play Length: 00:00:20
Video: NTSC 4:3 (720x480) VBRVTS_04 :
Play Length: 00:06:07
Video: NTSC 4:3 (720x480) VBR
Audio:
Czech(Ceske) (Dolby AC3, 1 ch)
Subtitles:
Russian
EnglishVTS_05 :
Play Length: 00:15:53
Video: NTSC 16:9 (720x480) VBR, Auto Letterboxed
Audio:
English (Dolby AC3, 1 ch)
Subtitles:
EnglishVTS_06 :
Play Length: 00:05:49
Video: NTSC 16:9 (720x480) VBR, Auto Pan&Scan
Audio:
Czech(Ceske) (Dolby AC3, 1 ch)
Subtitles:
EnglishVTS_07 :
Play Length: 00:15:27
Video: NTSC 16:9 (720x480) VBR, Auto Letterboxed
Audio:
English (Dolby AC3, 2 ch)VTS_08 :
Play Length: 00:05:48
Video: NTSC 16:9 (720x480) VBR, Auto Pan&Scan
Audio:
Czech(Ceske) (Dolby AC3, 1 ch)
Subtitles:
EnglishVTS_09 :
Play Length: 00:12:18
Video: NTSC 4:3 (720x480) VBR
Audio:
Czech(Ceske) (Dolby AC3, 1 ch)
Subtitles:
Russian
EnglishVTS_10 :
Play Length: 00:11:58
Video: NTSC 4:3 (720x480) VBR
Audio:
Czech(Ceske) (Dolby AC3, 1 ch)
Subtitles:
Russian
EnglishVTS_11 :
Play Length: 00:00:00
Video: NTSC 4:3 (720x480) VBR

Mediainfo

Общее
Полное имя : H:\Valerie and Her Week of Wonders DVD-9_Custom_Criterion#761\VIDEO_TS\VTS_02_2.VOB
Формат : MPEG-PS
Размер файла : 1024 Мбайт
Продолжительность : 17 м. 9 с.
Режим общего битрейта : Переменный
Общий поток : 8342 Кбит/секВидео
Идентификатор : 224 (0xE0)
Формат : MPEG Video
Версия формата : Version 2
Профиль формата : Main@Main
Настройки формата : CustomMatrix / BVOP
Параметр BVOP формата : Да
Параметр матрицы формата : Выборочная
Параметр GOP формата : Variable
Продолжительность : 17 м. 9 с.
Вид битрейта : Переменный
Битрейт : 7216 Кбит/сек
Максимальный битрейт : 9800 Кбит/сек
Ширина : 720 пикселей
Высота : 480 пикселей
Соотношение сторон : 4:3
Частота кадров : 23,976 (24000/1001) кадра/сек
Цветовое пространство : YUV
Субдискретизация насыщенности : 4:2:0
Битовая глубина : 8 бит
Тип развёртки : Прогрессивная
Порядок развёртки : 2:3 Pulldown
Метод сжатия : С потерями
Бит/(Пиксели*Кадры) : 0.871
Временной код первого кадра : 01:18:20:09
Оригинал временного кода : Group of pictures header
Размер потока : 886 Мбайт (86%)Аудио #1
Идентификатор : 189 (0xBD)-128 (0x80)
Формат : AC-3
Формат/Информация : Audio Coding 3
Режим смешивания : DVD-Video
Продолжительность : 17 м. 9 с.
Вид битрейта : Постоянный
Битрейт : 192 Кбит/сек
Каналы : 1 канал
Расположение каналов : Front: C
Частота : 48,0 КГц
Частота кадров : 31,250 кадров/сек (1536 SPF)
Битовая глубина : 16 бит
Метод сжатия : С потерями
Задержка видео : -351 мс.
Размер потока : 23,6 Мбайт (2%)
ServiceKind/String : Complete MainАудио #2
Идентификатор : 189 (0xBD)-129 (0x81)
Формат : AC-3
Формат/Информация : Audio Coding 3
Режим смешивания : DVD-Video
Продолжительность : 17 м. 9 с.
Вид битрейта : Постоянный
Битрейт : 384 Кбит/сек
Каналы : 1 канал
Расположение каналов : Front: C
Частота : 48,0 КГц
Частота кадров : 31,250 кадров/сек (1536 SPF)
Битовая глубина : 16 бит
Метод сжатия : С потерями
Задержка видео : -383 мс.
Размер потока : 47,1 Мбайт (5%)
ServiceKind/String : Complete MainАудио #3
Идентификатор : 189 (0xBD)-130 (0x82)
Формат : AC-3
Формат/Информация : Audio Coding 3
Режим смешивания : DVD-Video
Продолжительность : 17 м. 9 с.
Вид битрейта : Постоянный
Битрейт : 384 Кбит/сек
Каналы : 2 канала
Расположение каналов : Front: L R
Частота : 48,0 КГц
Частота кадров : 31,250 кадров/сек (1536 SPF)
Битовая глубина : 16 бит
Метод сжатия : С потерями
Задержка видео : -383 мс.
Размер потока : 47,1 Мбайт (5%)
ServiceKind/String : Complete MainТекст #1
Идентификатор : 189 (0xBD)-32 (0x20)
Формат : RLE
Формат/Информация : Run-length encoding
Режим смешивания : DVD-VideoТекст #2
Идентификатор : 189 (0xBD)-33 (0x21)
Формат : RLE
Формат/Информация : Run-length encoding
Режим смешивания : DVD-Video

Скриншоты меню

Скриншоты фильма

Скриншоты доп. материалов

Уважаемые пользователи!Найдите пару минут поблагодарить релизера и высказаться в топике раздачи.Ваше мнение - бальзам для раздающего и пища для ума остальным пользователям.Мои раздачи

Для скачки контента: [Установить программу-клиент] и кликнуть по - Скачать

[asmlocator.ru].t532473.torrent 
Торрент: Зарегистрирован [ 2018-05-15 20:10 ] · 210F228BDC8CCA3DB4BD5364BBCC12FA9F350A91

Скачать .torrent

Скачать

41 KB

Статус: проверено
Скачан: 0 раз
Размер: 7,66 GB
terms.php
[Профиль] [ЛС]
Показать сообщения:    
Ответить на тему

Текущее время: 28-Май 09:37

Часовой пояс: UTC ± 0



Вы не можете начинать темы
Вы не можете отвечать на сообщения
Вы не можете редактировать свои сообщения
Вы не можете удалять свои сообщения
Вы не можете голосовать в опросах
Вы не можете прикреплять файлы к сообщениям
Вы можете скачивать файлы