Переверни страницу (Андрей Селиванов) [2017, мелодрама, WEB-DLRip]

Ответить на тему
Статистика раздачи
Размер:  745 MB   |    Зарегистрирован:  13 дней   |    Скачан:  0 раз

Полного источника не было: 8 дней

 
   
 
 
Автор Сообщение

star21 ®

Пол: Не указан

Стаж: 2 года 6 месяцев

Сообщений: 519076

Создавать темы 14-Май-2018 23:05

[Цитировать]

Переверни страницу Жанр: мелодрама
Год выпуска: 2017
Продолжительность: 01:31:04Режиссёр: Андрей СеливановВ ролях: Анна Здор
Анастасия Шаповал
Павел Новиков
Полина Пилипченко
Ирина Туманцева
Сергей Ланбамин
Сергей Тишин
Игорь Литовкин
Вадим Руденко
Ксения Мон СорОписание: Наташа — красивая молодая женщина, преподаватель в музыкальной школе. Она счастливо замужем и растит дочь.Однажды вечером Наташа возвращается с корпоратива и бесследно пропадает. Поиски не дают результатов, и семья в конце концов смиряется с трагедией. Но три года спустя приходят шокирующие вести о Наташе…Доп. информация: https://www.kinopoisk.ru/film/pereverni-stranitsu-2017-1118087/Сэмпл: http://sendfile.su/1419274Качество видео: WEB-DLRip Найден в сети
Формат видео: AVIВидео: 688x384 (1.79:1), 25 fps, XviD build 73 ~1005 kbps avg, 0.15 bit/pixel
Аудио: 48 kHz, MPEG Layer 3, 2 ch, ~128.00 kbps avg

MediaInfo

GeneralComplete name                    : C:\Pereverni.Stranitsu.2017.WEB-DLRip.ot.Portablius.aviFormat                           : AVIFormat/Info                      : Audio Video InterleaveFile size                        : 745 MiBDuration                         : 1h 31mnOverall bit rate                 : 1 144 KbpsWriting application              : VirtualDubMod 1.5.10.3 | www.virtualdub-fr.org || (build 2550/release)Writing library                  : VirtualDubMod build 2550/releaseVideoID                               : 0Format                           : MPEG-4 VisualFormat profile                   : Advanced Simple@L5Format settings, BVOP            : 1Format settings, QPel            : NoFormat settings, GMC             : No warppointsFormat settings, Matrix          : CustomCodec ID                         : XVIDCodec ID/Hint                    : XviDDuration                         : 1h 31mnBit rate                         : 1 006 KbpsWidth                            : 688 pixelsHeight                           : 384 pixelsDisplay aspect ratio             : 16:9Frame rate                       : 25.000 fpsColor space                      : YUVChroma subsampling               : 4:2:0Bit depth                        : 8 bitsScan type                        : ProgressiveCompression mode                 : LossyBits/(Pixel*Frame)               : 0.152Stream size                      : 655 MiB (88%)Writing library                  : XviD 73AudioID                               : 1Format                           : MPEG AudioFormat version                   : Version 1Format profile                   : Layer 3Codec ID                         : 55Codec ID/Hint                    : MP3Duration                         : 1h 31mnBit rate mode                    : ConstantBit rate                         : 128 KbpsChannel(s)                       : 2 channelsSampling rate                    : 48.0 KHzCompression mode                 : LossyStream size                      : 83.4 MiB (11%)Alignment                        : Aligned on interleavesInterleave, duration             : 40 ms (1.00 video frame)Interleave, preload duration     : 504 msWriting library                  : LAME3.99rEncoding settings                : -m s -V 4 -q 2 -lowpass 17 -b 128

Скриншот c названием фильма

Скриншоты

Для скачки контента: [Установить программу-клиент] и кликнуть по - Скачать

[asmlocator.ru].t532260.torrent 
Торрент: Зарегистрирован [ 2018-05-14 23:05 ] · A51F6E534C1B484962B0D030C28AD18FA1455832

Скачать .torrent

Скачать

15 KB

Статус: проверено
Скачан: 0 раз
Размер: 745 MB
terms.php
[Профиль] [ЛС]
Показать сообщения:    
Ответить на тему

Текущее время: 28-Май 09:40

Часовой пояс: UTC ± 0



Вы не можете начинать темы
Вы не можете отвечать на сообщения
Вы не можете редактировать свои сообщения
Вы не можете удалять свои сообщения
Вы не можете голосовать в опросах
Вы не можете прикреплять файлы к сообщениям
Вы можете скачивать файлы