Вторжение в Америку / Invasion America / Сезон: 1 (1) / Серии: 1-4 из 13 (Дэн Фосетт / Dan Fausett) [1998, фантастика, приключения, HDTVRip] VO + Original

Ответить на тему
Статистика раздачи
Размер:  929 MB   |    Зарегистрирован:  5 месяцев 3 дня   |    Скачан:  0 раз

Полного источника не было: Никогда

 
   
 
 
Автор Сообщение

star21 ®

Пол: Женский

Стаж: 2 года 11 месяцев

Сообщений: 552946

Откуда: Екатеринбург

Создавать темы 14-Май-2018 23:05

[Цитировать]

Вторжение в Америку
Invasion America
Страна: США
Жанр: Мультсериал, фантастика, приключения
Продолжительность: 1:17:17 (4 серии Х 19 мин.)
Год выпуска: 1998
Перевод: Одноголосый закадровый с VHSРежиссёр: Дэн Фосетт / Dan FausettОписание: История начинается в ранних 80-х, когда пришельцы с планеты Тайрус пытаются наладить контакт с Землей. Но не все иноплатенетяне едины в желании мира. Драгит, дядя правителя Кайла Ооша, пытается за спиной племянника инициировать вторжение.Серии в раздаче:
#01: The Legend
#02: The Son
#03: Flight
#04: AssaultДоп. информация: Премьерный показ сериала состоял из 6 вечерних "блоков". Эти "блоки" были изданы на видеокассетах от Saturn Home Video, звук с которых был оцифрован, перетянут в PAL и синхронизирован с TVRip'ами. Временами присутствуют проблемы с липсинком – это изначальный изъян исходных TVRip'ов. |
Áлексис ... покупка VHS, оцифровка и синхронизация
Рипы взяты из соседней раздачи.Качество: HDTVRip
Формат: AVI
Видео: 640x480 (1.33:1), 25 fps, XviD Final 1.0.3 (build 37) ~1243 kbps avg, 0.16 bit/pixel
Аудио #1: 48 kHz, AC3 Dolby Digital, 2/0 (stereo) ch, ~192.00 kbps avg (VHS)
Аудио #2: 48 kHz, AC3 Dolby Digital, 2/0 (stereo) ch, ~192.00 kbps avg (оригинал) -- серия #3 dual-mono
Субтитры:: нет

Подробные технические данные

General
Complete name : D:\Invasion America - 01 - The Legend [VO+Eng] [FilmStore Group].avi
Format : AVI
Format/Info : Audio Video Interleave
File size : 241 MiB
Duration : 19 min 56 s
Overall bit rate : 1 690 kb/s
Writing application : VirtualDubMod 1.5.10.2 (build 2540/release)
Writing library : VirtualDubMod build 2540/releaseVideo
ID : 0
Format : MPEG-4 Visual
Format profile : Advanced Simple@L5
Format settings : BVOP2 / QPel
Format settings, BVOP : 2
Format settings, QPel : Yes
Format settings, GMC : No warppoints
Format settings, Matrix : Default (H.263)
Codec ID : XVID
Codec ID/Hint : XviD
Duration : 19 min 56 s
Bit rate : 1 291 kb/s
Width : 640 pixels
Height : 480 pixels
Display aspect ratio : 4:3
Frame rate : 25.000 FPS
Color space : YUV
Chroma subsampling : 4:2:0
Bit depth : 8 bits
Scan type : Progressive
Compression mode : Lossy
Bits/(Pixel*Frame) : 0.168
Stream size : 184 MiB (76%)
Writing library : XviD 1.0.2 (UTC 2004-08-29)Audio #1
ID : 1
Format : AC-3
Format/Info : Audio Coding 3
Codec ID : 2000
Duration : 19 min 56 s
Bit rate mode : Constant
Bit rate : 192 kb/s
Channel(s) : 2 channels
Channel positions : Front: L R
Sampling rate : 48.0 kHz
Frame rate : 31.250 FPS (1536 SPF)
Bit depth : 16 bits
Compression mode : Lossy
Stream size : 27.4 MiB (11%)
Alignment : Split accross interleaves
Interleave, duration : 40 ms (1.00 video frame)
Interleave, preload duratio : 500 ms
Service kind : Complete MainAudio #2
ID : 2
Format : AC-3
Format/Info : Audio Coding 3
Codec ID : 2000
Duration : 19 min 56 s
Bit rate mode : Constant
Bit rate : 192 kb/s
Channel(s) : 2 channels
Channel positions : Front: L R
Sampling rate : 48.0 kHz
Frame rate : 31.250 FPS (1536 SPF)
Bit depth : 16 bits
Compression mode : Lossy
Stream size : 27.4 MiB (11%)
Alignment : Split accross interleaves
Interleave, duration : 40 ms (1.00 video frame)
Interleave, preload duratio : 500 ms
Service kind : Complete Main
Все раздачи мультсериала

Для скачки контента: [Установить программу-клиент] и кликнуть по - СкачатьБезопасность: клиент проверен АВ Касперского

[asmlocator.ru].t532253.torrent 
Торрент: Зарегистрирован [ 2018-05-14 23:05 ] · BD8725D4DC6245BCDEEA27867764F91775CF74F6

Скачать .torrent

Скачать

19 KB

Статус: проверено
Скачан: 0 раз
Размер: 929 MB
terms.php
[Профиль] [ЛС]
Показать сообщения:    
Ответить на тему

Текущее время: 18-Окт 12:32

Часовой пояс: UTC ± 0



Вы не можете начинать темы
Вы не можете отвечать на сообщения
Вы не можете редактировать свои сообщения
Вы не можете удалять свои сообщения
Вы не можете голосовать в опросах
Вы не можете прикреплять файлы к сообщениям
Вы можете скачивать файлы