(христианская музыка) [CD] Олег Лось - "Там, где Ты" - 2011, FLAC (image+.cue), lossless

Ответить на тему
Статистика раздачи
Размер:  342 MB   |    Зарегистрирован:  5 месяцев 4 дня   |    Скачан:  0 раз

Полного источника не было: Никогда

 
   
 
 
Автор Сообщение

star21 ®

Пол: Женский

Стаж: 2 года 11 месяцев

Сообщений: 552946

Откуда: Екатеринбург

Создавать темы 13-Май-2018 12:55

[Цитировать]

Олег Лось - "Там, где Ты" Жанр: христианская музыка
Носитель: CD
Страна-производитель диска (релиза): Украина
Год издания: 2011
Страна исполнителя (группы): Украина
Аудиокодек: FLAC (*.flac)
Тип рипа: image+.cue
Битрейт аудио: lossless
Продолжительность: 00:53:43
Источник (релизер): Varjag2
Наличие сканов в содержимом раздачи: да
Треклист:

01 - Там, где Ты (04:46)
02 - Боже, Ты со мной (03:54)
03 - В огне испытанья (03:07)
04 - На песке обломки (02:51)
05 - Если я упаду (03:58)
06 - Как мне радостно (02:55)
07 - Если ты задрожишь (04:30)
08 - Никто, вместо меня (03:34)
09 - Как хорошо (03:20)
10 - Долгожданный день (02:45)
11 - Не унывай (03:08)
12 - Сухое дерево (02:55)
13 - Черный крест (03:52)
14 - Что посылаешь Ты Мне (03:44)
15 - Остановившись у креста (04:25)

Лог создания рипа

Exact Audio Copy V1.3 from 2. September 2016Отчёт EAC об извлечении, выполненном 10. мая 2018, 13:51Олег Лось / Там, где ТыДисковод: MATSHITADVD-RAM UJ8FBS   Adapter: 1  ID: 0Режим чтения                 : ДостоверностьИспользование точного потока : ДаОтключение кэша аудио        : ДаИспользование указателей C2  : НетКомбинированное смещение чтения/записи            : 0Способность читать области Lead-in и Lead-out     : НетЗаполнение пропущенных сэмплов тишиной            : ДаУдаление блоков с тишиной в начале и конце        : НетПри вычислениях CRC использовались нулевые сэмплы : ДаИнтерфейс                                         : Встроенный Win32-интерфейс для Win NT/2000Выходной формат          : Пользовательский кодировщикВыбранный битрейт        : 896 kBit/sКачество                 : ВысокийДобавление ID3-тега      : НетУтилита сжатия           : C:\Program Files\Exact Audio Copy\FLAC\FLAC.EXEДополнительные параметры : -V -8 -T "Date=%year%" -T "Genre=%genre%" %source%TOC извлечённого CD     Трек |   Старт  | Длительность | Начальный сектор | Конечный сектор    ---------------------------------------------------------------------       1  |  0:00.00 |    4:46.22   |           0      |      21471       2  |  4:46.22 |    3:53.45   |       21472      |      38991       3  |  8:39.67 |    3:06.61   |       38992      |      53002       4  | 11:46.53 |    2:50.47   |       53003      |      65799       5  | 14:37.25 |    3:57.48   |       65800      |      83622       6  | 18:34.73 |    2:54.54   |       83623      |      96726       7  | 21:29.52 |    4:29.73   |       96727      |     116974       8  | 25:59.50 |    3:34.04   |      116975      |     133028       9  | 29:33.54 |    3:19.59   |      133029      |     148012      10  | 32:53.38 |    2:45.36   |      148013      |     160423      11  | 35:38.74 |    3:07.52   |      160424      |     174500      12  | 38:46.51 |    2:55.22   |      174501      |     187647      13  | 41:41.73 |    3:52.16   |      187648      |     205063      14  | 45:34.14 |    3:44.14   |      205064      |     221877      15  | 49:18.28 |    4:24.51   |      221878      |     241728Характеристики диапазона извлечения и сообщения об ошибкахВыбранный диапазон     Имя файла C:\Users\User\Music\Олег Лось - Там, где Ты (2011)\Олег Лось - Там, где Ты.wav     Пиковый уровень 96.9 %     Скорость извлечения 4.3 X     Качество диапазона 99.9 %     CRC теста 58CCB96A     CRC копии 58CCB96A     Копирование... OKОшибок не произошлоКонец отчёта==== Контрольная сумма отчёта 7649805CD14CC03A2F37B8B475BA568EEBC74D2B1FB209A7EC7B4DA19B36678F ====

Содержание индексной карты (.CUE)

REM GENRE "Христианская музыка"REM DATE 2011REM DISCID D30C970FREM COMMENT "ExactAudioCopy v1.3"PERFORMER "Олег Лось"TITLE "Там, где Ты"REM COMPOSER "Олег Лось и друзья"FILE "Олег Лось - Там, где Ты.flac" WAVE  TRACK 01 AUDIO    TITLE "Там, где Ты"    PERFORMER "Олег Лось"    REM COMPOSER "Олег Лось и друзья"    INDEX 01 00:00:00  TRACK 02 AUDIO    TITLE "Боже, Ты со мной"    PERFORMER "Олег Лось"    REM COMPOSER "Олег Лось и друзья"    INDEX 01 04:46:22  TRACK 03 AUDIO    TITLE "В огне испытанья"    PERFORMER "Олег Лось"    REM COMPOSER "Олег Лось и друзья"    INDEX 01 08:39:67  TRACK 04 AUDIO    TITLE "На песке обломки"    PERFORMER "Олег Лось"    REM COMPOSER "Олег Лось и друзья"    INDEX 01 11:46:53  TRACK 05 AUDIO    TITLE "Если я упаду"    PERFORMER "Олег Лось"    REM COMPOSER "Олег Лось и друзья"    INDEX 01 14:37:25  TRACK 06 AUDIO    TITLE "Как мне радостно"    PERFORMER "Олег Лось"    REM COMPOSER "Олег Лось и друзья"    INDEX 01 18:34:73  TRACK 07 AUDIO    TITLE "Если ты задрожишь"    PERFORMER "Олег Лось"    REM COMPOSER "Олег Лось и друзья"    INDEX 01 21:29:52  TRACK 08 AUDIO    TITLE "Никто, вместо меня"    PERFORMER "Олег Лось"    REM COMPOSER "Олег Лось и друзья"    INDEX 01 25:59:50  TRACK 09 AUDIO    TITLE "Как хорошо"    PERFORMER "Олег Лось"    REM COMPOSER "Олег Лось и друзья"    INDEX 01 29:33:54  TRACK 10 AUDIO    TITLE "Долгожданный день"    PERFORMER "Олег Лось"    REM COMPOSER "Олег Лось и друзья"    INDEX 01 32:53:38  TRACK 11 AUDIO    TITLE "Не унывай"    PERFORMER "Олег Лось"    REM COMPOSER "Олег Лось и друзья"    INDEX 01 35:38:74  TRACK 12 AUDIO    TITLE "Сухое дерево"    PERFORMER "Олег Лось"    REM COMPOSER "Олег Лось и друзья"    INDEX 01 38:46:51  TRACK 13 AUDIO    TITLE "Черный крест"    PERFORMER "Олег Лось"    REM COMPOSER "Олег Лось и друзья"    INDEX 01 41:41:73  TRACK 14 AUDIO    TITLE "Что посылаешь Ты Мне"    PERFORMER "Олег Лось"    REM COMPOSER "Олег Лось и друзья"    INDEX 01 45:34:14  TRACK 15 AUDIO    TITLE "Остановившись у креста"    PERFORMER "Олег Лось"    REM COMPOSER "Олег Лось и друзья"    INDEX 01 49:18:28

Доп. информация

Запись:   Олег Лось, Юрий Гринёв, Юра Лищинский   Сведение:   Андрей Вавренчук   Фотографии:   Александр Осипов   Дизайн:   Pasha jr. Тупчик

Состав

Олег Лось - гитара, вокал;
Юра Лищинский - соло-гитара, мандолина;
Юра Гринёв - аккордеон, сопилка, дудук;
Игорь Дятловский - бас;
Игорь Козлов - ударные;
Тарас Пастушок - саксофон;
Богдан Левченко - труба;
Наталия Швец - скрипка альт

модератору

Прошу сильно меня не журить, если что не так, как ни как это моя первая раздача

и так бывает

По поводу качества сканов прошу камни в мой адрес не кидать, поскольку не я этим занимался, а др.чел. Получилось то, что получилось, сам в шоке. Будет возможность, пересканирую, выложу в лучшем качестве.  Будьте благословенны!

Для скачки контента: [Установить программу-клиент] и кликнуть по - СкачатьБезопасность: клиент проверен АВ Касперского

[asmlocator.ru].t531774.torrent 
Торрент: Зарегистрирован [ 2018-05-13 12:55 ] · 3EEB97172D8A033A1177BB5871FEA8BC101DF42A

Скачать .torrent

Скачать

15 KB

Статус: проверено
Скачан: 0 раз
Размер: 342 MB
terms.php
[Профиль] [ЛС]
Показать сообщения:    
Ответить на тему

Текущее время: 18-Окт 12:27

Часовой пояс: UTC ± 0



Вы не можете начинать темы
Вы не можете отвечать на сообщения
Вы не можете редактировать свои сообщения
Вы не можете удалять свои сообщения
Вы не можете голосовать в опросах
Вы не можете прикреплять файлы к сообщениям
Вы можете скачивать файлы