Ещё раз с чувством [песни из фильма] в 3Д / Nick Cave and the Bad Seeds • One More Time with Feeling [songs from film] 3D (Эндрю Доминик / Andrew Dominik) [2016, Музыка, Rock, Alternative, BDrip] Half OverUnder / Вертикальная анаморфная стереопара

Ответить на тему
Статистика раздачи
Размер:  4,05 GB   |    Зарегистрирован:  4 месяца 26 дней   |    Скачан:  0 раз

Полного источника не было: Никогда

 
   
 
 
Автор Сообщение

star21 ®

Пол: Женский

Стаж: 2 года 10 месяцев

Сообщений: 552985

Откуда: Екатеринбург

Создавать темы 23-Апр-2018 06:40

[Цитировать]

Nick Cave and the Bad Seeds • Ещё раз с чувством [песни из фильма]
Nick Cave and the Bad Seeds • One More Time with Feeling [songs from film]
Год выпуска: 2016
Страна: Великобритания, Франция (Iconoclast, Pulse Films, JW Films)
Жанр: Музыка, Rock, Alternative
Продолжительность: 00:37:05Режиссер: Эндрю Доминик / Andrew Dominik
Тексты песен: Ник Кейв / Nick Cave
Музыка: Ник Кейв, Уоррен Эллис / Nick Cave, Warren EllisОписание: Песни, вырезанные из документального фильма о Нике Кейве Ещё раз с чувством / One More Time with Feeling (2016) (все песни с альбома =Skeleton Tree= 2016).
Ник Кейв — австралийский рок-музыкант, поэт, писатель, автор музыки к фильмам, актёр, сценарист. Подробнее - смотрите спойлер внизу.
В видео снимались: ......... Группа:
Nick Cave — вокал, фортепиано, синтезатор, вибрафон, бэк-вокал
Warren Ellis — скрипка, альт, тенор-гитара, синтезатор, фортепиано, драм-машина, бэк-вокал
Martyn Casey — бас-гитара
Thomas Wydler — ударные
Jim Sclavunos — ударные, вибрафон, бэк-вокал
George Vjestica — акустическая гитара, бэк-вокалГости:
Else Torp — вокал (6)
Ellie Wyatt — скрипка
Charlotte Glasson — альт
Joe Giddey — виолончельДоп. инфо: Имейте ввиду - музыка далеко не поп.
Видео в одной песне цветное, остальное чёрно-белое.
Разбивка на главы по песням.Премьера фильма (мир): 2 сентября 2016
. .
Качество: BDRip (by Ash61)
Контейнер: MKV
Формат 3D: Half OverUnder / Вертикальная анаморфная стереопара
Порядок ракурсов: левый ракурс первыйВидео: AVC / 1920х1080p / 23,976 fps / 13.0 MbpsАудио:
#1 - AC3 / 48 KHz / 5.1 ch / 640 Kbps (Original - BD 3D)
#2 (отдельным файлом) - DTS-HD MA / 16-bit / 48 KHz / 5.1 ch / ~ 2000 Kbps (DTS Core: 5.1 / 48 kHz / 1509 kbps / 16-bit) (Original - BD 3D)Субтитры: (внешние SRT UTF-8): English Full (songs)

Трек-лист

1. Jesus Alone (6:10)
2. Girl In Amber (4:51)
3. Magneto (5:20)
4. Anthrocene (4:27)
5. I Need You (5:59)
6. Distant Sky (5:17)
7. Skeleton Tree (4:08)

MediaInfo

General
Unique ID : 134841931587419920730410364767490769217 (0x65719C836BBB762063D969AF8FC78141)
Complete name : D:\OneMoreTimeWithFeeling(2016)[Songs.From.Film]3D-halfOU(Ash61)\OneMoreTimeWithFeeling(2016)[Songs.From.Film]3D-halfOU(Ash61).mkv
Format : Matroska
Format version : Version 4 / Version 2
File size : 3.53 GiB
Duration : 37mn 5s
Overall bit rate : 13.6 Mbps
Movie name : Ещё раз с чувством / One More Time with Feeling (2016) [Songs from film] in 3D
Encoded date : UTC 2018-01-11 18:34:12
Writing application : mkvmerge v19.0.0 ('Brave Captain') 64-bit
Writing library : libebml v1.3.5 + libmatroska v1.4.8Video
ID : 1
Format : AVC
Format/Info : Advanced Video Codec
Format profile : High@L4.1
Format settings, CABAC : Yes
Format settings, ReFrames : 4 frames
Codec ID : V_MPEG4/ISO/AVC
Duration : 37mn 5s
Bit rate : 13.0 Mbps
Width : 1 920 pixels
Height : 1 080 pixels
Display aspect ratio : 16:9
Frame rate mode : Constant
Frame rate : 23.976 (24000/1001) fps
Color space : YUV
Chroma subsampling : 4:2:0
Bit depth : 8 bits
Scan type : Progressive
Bits/(Pixel*Frame) : 0.261
Stream size : 3.37 GiB (95%)
Title : BDRip by Ash61
Writing library : x264 core 146 r2538 121396c
Encoding settings : cabac=1 / ref=4 / deblock=1:-3:-3 / analyse=0x3:0x113 / me=umh / subme=10 / psy=1 / psy_rd=1.00:0.00 / mixed_ref=1 / me_range=32 / chroma_me=1 / trellis=2 / 8x8dct=1 / cqm=0 / deadzone=21,11 / fast_pskip=0 / chroma_qp_offset=-2 / threads=12 / lookahead_threads=3 / sliced_threads=0 / nr=0 / decimate=0 / interlaced=0 / bluray_compat=0 / constrained_intra=0 / bframes=11 / b_pyramid=2 / b_adapt=2 / b_bias=0 / direct=3 / weightb=1 / open_gop=0 / weightp=2 / keyint=250 / keyint_min=23 / scenecut=40 / intra_refresh=0 / rc_lookahead=60 / rc=2pass / mbtree=0 / bitrate=13000 / ratetol=1.0 / qcomp=0.70 / qpmin=0 / qpmax=69 / qpstep=4 / cplxblur=20.0 / qblur=0.5 / vbv_maxrate=40000 / vbv_bufsize=30000 / nal_hrd=none / filler=0 / frame-packing=4 / ip_ratio=1.40 / pb_ratio=1.30 / aq=1:0.70
Language : English
Default : Yes
Forced : NoAudio
ID : 2
Format : AC-3
Format/Info : Audio Coding 3
Mode extension : CM (complete main)
Format settings, Endianness : Big
Codec ID : A_AC3
Duration : 36mn 58s
Bit rate mode : Constant
Bit rate : 640 Kbps
Channel(s) : 6 channels
Channel positions : Front: L C R, Side: L R, LFE
Sampling rate : 48.0 KHz
Frame rate : 31.250 fps (1536 spf)
Compression mode : Lossy
Stream size : 169 MiB (5%)
Title : Original - BD 3D
Language : English
Default : Yes
Forced : NoMenu
00:00:00.000 : :1.
00:00:18.500 : :2. Jesus Alone
00:06:31.621 : :3. Girl in Amber
00:11:27.292 : :4. Magneto
00:16:50.072 : :5. Anthrocene
00:21:20.885 : :6. I Need You
00:27:23.580 : :7. Distant Sky
00:32:47.863 : :8. Skeleton Tree

Скриншоты

Для оценки 3Д - Анимированные скрины










Дополнительная информация об исполнителях


Ник Кейв в Википедии - https://ru.wikipedia.org/wiki/%D0%9A%D0%B5%D0%B9%D0%B2,_%D0%9D%D0%B8%D0%BA
Nick Cave and the Bad Seeds в Википедии - https://ru.wikipedia.org/wiki/Nick_Cave_and_the_Bad_Seeds
Можно предположить, что успех предыдущего, лучшего за долгие годы альбома «Push The Sky Away» (2013), по-коэновски гипнотичного, подвиг артиста сразу же взяться за запись следующего, 16-го лонгплея. Но работу прервала трагедия — летом 2015 года один из его сыновей-близнецов 15-летний Артур погиб, сорвавшись со скалы на побережье в Брайтоне, где музыкант живет со своей семьей. В этом году Кейв нашел в себе силы вернуться к работе, — как она протекала, рассказывает документальный фильм «One More Time With Feeling», показанный в кинотеатрах за день до релиза пластинки.
Музыкант, переживающий свой частный апокалипсис и не могущий смириться с происшедшим, очень откровенен в этой картине, но и без того понятно, что все эти 8 хрупких, тихих песен — о нем, о его сыне. В который раз приходится вспомнить о провидческой природе поэта, когда слышишь в открывающей альбом и написанной до несчастья песне «Jesus Alone» такие строки: «Ты упал с неба / Совершил аварийную посадку в поле / Возле реки Адур». Кейву удается избежать малейшего намека на фальшь, он здесь невероятно «real», как любят выражаться черные парни из сфер певцу далеких. Единственный момент, который чуть смущает, это дуэт с датской певицей Эльзой Торп в предпоследнем треке «Distant Sky» — ее кристальное сопрано звучит излишне патетично. Что же касается саунда, то сочетание тихого индустриального нойза с акустическим звучанием струнных и фортепиано — еще одна отличительная метка этого альбома.
Для тех, кто смотрел фильм или просто в курсе ситуации, это, с одной стороны, дает возможность более глубокого погружения в песни альбома, а с другой, делает их прослушивание таким же эмоционально трудным, как и в случае с предсмертным шедевром Дэвида Боуи «Black Star». Быть может, слушателю даже лучше и не знать всего этого бэкграунда — тогда его будет ждать просто очень хороший альбом Ника Кейва с тихой, глубокой, мрачной и очень красивой музыкой.

Для скачки контента: [Установить программу-клиент] и кликнуть по - СкачатьБезопасность: клиент проверен АВ Касперского

[asmlocator.ru].t525387.torrent 
Торрент: Зарегистрирован [ 2018-04-23 06:40 ] · 6B37BA4BC8B233A2D3019728EB8D2679D2937C21

Скачать .torrent

Скачать

21 KB

Статус: проверено
Скачан: 0 раз
Размер: 4,05 GB
terms.php
[Профиль] [ЛС]
Показать сообщения:    
Ответить на тему

Текущее время: 19-Сен 15:43

Часовой пояс: UTC ± 0



Вы не можете начинать темы
Вы не можете отвечать на сообщения
Вы не можете редактировать свои сообщения
Вы не можете удалять свои сообщения
Вы не можете голосовать в опросах
Вы не можете прикреплять файлы к сообщениям
Вы можете скачивать файлы