Коды Курчатова (Александр Смирнов) [2018, Россия, Документальный, HDTV 1080i]

Reply to topic
DL-List and Torrent activity
Size:  1.89 GB   |    Registered:  1 year   |    Completed:  0 times

Seeder not seen: Never

 
   
 
 
Author Message

star21 ®

Gender: Female

Longevity: 3 years 5 months

Posts: 552392

Location: Екатеринбург

Post 16-Apr-2018 11:50

[Quote]

Коды Курчатова Страна: Россия
Студия: Телеканал "Россия", ВГТРК, Кинокомпания «Мастерская»
Жанр: Документальный
Год выпуска: 2018
Продолжительность: 00:52:18
Режиссёр: Александр СмирновОписание: 75 лет со дня основания Курчатовского института. Научно-исследовательский центр родился из "Лаборатории № 2", где в середине прошлого столетия Игорем Васильевичем Курчатовым была создана советская атомная бомба. Тогда это было "царство физиков". Теперь это НБИКС. Слияние нано-, био-, инфо-, когно- и социо-гуманитарных наук и технологий для реализации глобальных проектов. В стенах Курчатника вместе работают физики, биологи, психологи, лингвисты, историки, химики. Создаются принципиально новые, природоподобные технологии. Это фильм о курчатовской "молодежи", которая исследует свойства памяти, молекулы белка, работает над созданием технологий искусственного интеллекта, изучает археологические находки и мумии, ищет ответы на вопросы, которые волнуют все человечество. В фильме – интервью-беседа Дмитрия Киселева с президентом НИЦ "Курчатовский институт" членом-корреспондентом РАН М. В. Ковальчуком.Доп. информация:
Автор релиза -
Источник - HDTV 1080i TS - моя запись с канала Россия-1 HDСэмпл: https://yadi.sk/d/grlvMWMX3UT8pdРекламы нет!Качество видео: HDTV 1080i
Формат видео: TSВидео: MPEG-4, 1920x1080 (16:9), 25.000 fps, 4722 kbps, 0.091 bit/pixel
Аудио: Русский MP2, 48000 Гц, 2ch, 192 kbps

MediaInfo

ОбщееИдентификатор                            : 1 (0x1)Полное имя                               : D:\Коды.Курчатова.2018.HDTV.1080i-ylnian.tsФормат                                   : MPEG-TSРазмер файла                             : 1,89 ГбайтПродолжительность                        : 52 м. 17 с.Режим общего битрейта                    : ПеременныйОбщий поток                              : 5171 Кбит/секВидеоИдентификатор                            : 1178 (0x49A)Идентификатор меню                       : 1138 (0x472)Формат                                   : AVCФормат/Информация                        : Advanced Video CodecПрофиль формата                          : High@L4Настройки формата                        : CABAC / 4 Ref FramesПараметр CABAC формата                   : ДаПараметр RefFrames формата               : 4 кадраИдентификатор кодека                     : 27Продолжительность                        : 52 м. 17 с.Битрейт                                  : 4722 Кбит/секШирина                                   : 1920 пикселейВысота                                   : 1080 пикселейСоотношение сторон                       : 16:9Частота кадров                           : 25,000 кадров/секСтандарт вещания                         : ComponentЦветовое пространство                    : YUVСубдискретизация насыщенности            : 4:2:0Битовая глубина                          : 8 битТип развёртки                            : ЧересстрочнаяМетод сохранения типа развёртки          : Раздельные поляПорядок развёртки                        : Верхнее поле первоеБит/(Пиксели*Кадры)                      : 0.091Размер потока                            : 1,72 Гбайт (91%)Цветовой диапазон                        : LimitedОсновные цвета                           : BT.709Характеристики трансфера                 : BT.709Коэффициенты матрицы                     : BT.709АудиоИдентификатор                            : 1179 (0x49B)Идентификатор меню                       : 1138 (0x472)Формат                                   : MPEG AudioВерсия формата                           : Version 1Профиль формата                          : Layer 2Идентификатор кодека                     : 3Продолжительность                        : 52 м. 17 с.Вид битрейта                             : ПостоянныйБитрейт                                  : 192 Кбит/секКаналы                                   : 2 каналаЧастота                                  : 48,0 КГцЧастота кадров                           : 41,667 кадра/сек (1152 SPF)Метод сжатия                             : С потерямиЗадержка видео                           : -120 мс.Размер потока                            : 71,8 Мбайт (4%)Язык                                     : Russian

To download the content you need:
1. Download and install torrent client [for Windows] or for mobile system
2. Click on [Download]
Attention.
If the test YOU are NOT a ROBOT - does not work, then You are using an outdated browser.
Install the current browser and click on [Download]
Security: torrent client is allowed by Kaspersky.

[asmlocator.ru].t523448.torrent 
Torrent: Registered [ 2018-04-16 11:50 ] · E530C4B7C4BE05AADCBD6D8DF5A6BE94011DC700

Download .torrent

Download

19 KB

Status: checked
Completed: 0 times
Size: 1.89 GB
terms.php
[Profile] [PM]
Display posts:    
Reply to topic

Current time is: 20-Apr 09:19

All times are UTC ± 0



You cannot post new topics in this forum
You cannot reply to topics in this forum
You cannot edit your posts in this forum
You cannot delete your posts in this forum
You cannot vote in polls in this forum
You cannot attach files in this forum
You can download files in this forum