Железный Человек / Iron Man: The Animated Series / Сезоны: 1-2 / Серии: 1-26 из 26 (Джордж Джонсон / George Johnson) [1994-1996, фантастика, боевик, приключения, DVDRip-AVC] Dub

Ответить на тему
Статистика раздачи
Размер:  10,42 GB   |    Зарегистрирован:  3 месяца 2 дня   |    Скачан:  0 раз

Полного источника не было: Никогда

 
   
 
 
Автор Сообщение

star21 ®

Пол: Женский

Стаж: 2 года 8 месяцев

Сообщений: 532152

Откуда: Екатеринбург

Создавать темы 16-Апр-2018 11:50

[Цитировать]

Железный Человек Iron Man: The Animated Series Английское название: Iron Man: The Animated Series
Русское название: Железный Человек
Год выпуска: 1994-1996
Страна: США
Жанр: фантастика, боевик, приключения
Продолжительность: ТВ (26 эп.), ~ 21 минутаПеревод: Профессиональный (Полное Дублирование) [студия INTRA по заказу Fox Kids]
Русские субтитры: Нет
Английские субтитры: НетРежиссёр: Джордж Джонсон / George JohnsonОписание: Железный человек — герой, борющийся со злом с помощью своих доспехов, которые заодно и поддерживают его повседневную жизнь, жизнь Тони Старка, миллиардера, владельца солидной компании по производству секретного оружия, производимого по заказу государства и так называемой организации «Щит», с которой он также сотрудничает в образе героя в стальных доспехах - Железного человека.Но на пути у него вечно встает его заклятый враг и ярый противник — некто Мандарин, древний монгольский хан и завоеватель. Он также обладает силой, правда магической, что верно является весьма и весьма опасным для нашего героя признаком.Доп. Информация: В данном рипе максимально устранены проблемы с интерлейсом, "лесенкой", убрана "радуга", полностью убраны "шахматы", почищена картинка от шумов и ореолов. Ссылка на остальные раздачи | СэмплКачество: DVDRip [Исходник DVD9]
Авторы рипа: SOFCJ [энкод видео], Urotsuki [фильтрация видео]
Формат видео: AVC
Аудио кодек: AC3
Контейнер: MKV
Видео: x264, 8bit, 720x576@768x576, (4:3), 25fps, ~2800 kbps
Аудио: Dolby AC3, 48000 Hz, 2ch, 256kbps

Наличие серий в раздаче

Сезон 1
01. И море вернет своих мертвецов / And the Sea Shall Give Up Its Dead
02. Ликуй! Я Ультимо, твой спаситель / Rejoice! I Am Ultimo, Thy Deliverer
03. Порядок вместо хаоса / Data In Chaos Out
04. Мой друг - тишина, смерть - моя судьба / Silence My Companion Death My Destination
05. Потрошитель с тефлоновым покрытием / The Grim Reaper Wears a Teflon Coat
06. Враг далеко, враг близко / Enemy Without, Enemy Within
07. История Мандарина / Origin Of The Mandarin
08. Предательство ястреба / The Defection Of Hawkeye
09. Железный Человек против двойника. Часть 1 / Iron Man To The Second Power. Part 1
10. Железный Человек против двойника. Часть 2 / Iron Man To The Second Power. Part 2
11. Происхождение Железного Человека. Часть 1 / The Origin Of Iron Man. Part 1
12. Происхождение Железного Человека. Часть 2 / The Origin Of Iron Man. Part 2
13. Свадьба Железного Человека / The Wedding Of Iron ManСезон 2
14. Звери в человеческом обличье / The Beast Within
15. Огонь и вода / Fire and Rain
16. Железная тюрьма / Cell of Iron
17. Яблоко от яблони / Not Far From the Tree
18. Красота не знает боли / Beauty Knows No Pain
19. Железный человек внутри / Iron Man On The Inside
20. На дальних границах / Distant Boundries
21. Щит и меч. Часть 1 / The Armor Wars. Part 1
22. Щит и меч. Часть 2 / The Armor Wars. Part 2
23. Облеченный властью / Empowered
24. Битва с Халком / Hulk Buster
25. Руки Мандарина. Часть 1 / Hands Of The Mandarin. Part 1
26. Руки Мандарина. Часть 2 / Hands Of The Mandarin. Part 2

Подробные технические данные

Complete name               : [SOFCJ-Raws] Iron Man TAS 1x01 (01) And the Sea Shall Give Up Its Dead [DVDRip].mkvFormat                      : MatroskaFormat version              : Version 4 / Version 2File size                   : 462 MiBDuration                    : 21 min 2 sOverall bit rate            : 3 073 kb/sMovie name                  : [SOFCJ-Raws] Iron Man TAS 1x01 (01) And the Sea Shall Give Up Its Dead [DVDRip]Encoded date                : UTC 2018-04-11 07:11:10Writing application         : mkvmerge v8.3.0 ('Over the Horizon') 64bitWriting library             : libebml v1.3.1 + libmatroska v1.4.2VideoID                          : 1Format                      : AVCFormat/Info                 : Advanced Video CodecFormat profile              : High@L4.1Format settings             : CABAC / 9 Ref FramesFormat settings, CABAC      : YesFormat settings, ReFrames   : 9 framesCodec ID                    : V_MPEG4/ISO/AVCDuration                    : 21 min 2 sBit rate                    : 2 815 kb/sWidth                       : 720 pixelsHeight                      : 576 pixelsDisplay aspect ratio        : 4:3Frame rate mode             : ConstantFrame rate                  : 25.000 FPSStandard                    : PALColor space                 : YUVChroma subsampling          : 4:2:0Bit depth                   : 8 bitsScan type                   : ProgressiveBits/(Pixel*Frame)          : 0.272Stream size                 : 424 MiB (92%)Writing library             : x264 core 155 r2901 7d0ff22Encoding settings           : cabac=1 / ref=9 / deblock=1:1:-1 / analyse=0x3:0x113 / me=umh / subme=9 / psy=1 / psy_rd=1.00:0.00 / mixed_ref=1 / me_range=32 / chroma_me=1 / trellis=2 / 8x8dct=1 / cqm=0 / deadzone=21,11 / fast_pskip=1 / chroma_qp_offset=-2 / threads=12 / lookahead_threads=2 / sliced_threads=0 / nr=0 / decimate=1 / interlaced=0 / bluray_compat=0 / constrained_intra=0 / bframes=9 / b_pyramid=2 / b_adapt=2 / b_bias=0 / direct=1 / weightb=1 / open_gop=0 / weightp=2 / keyint=250 / keyint_min=25 / scenecut=40 / intra_refresh=0 / rc=crf / mbtree=0 / crf=15.5 / qcomp=0.72 / qpmin=0 / qpmax=69 / qpstep=4 / ip_ratio=1.40 / pb_ratio=1.30 / aq=1:1.00Language                    : EnglishDefault                     : YesForced                      : NoColor range                 : LimitedColor primaries             : BT.601 PALTransfer characteristics    : BT.470 System B/GMatrix coefficients         : BT.470 System B/GAudioID                          : 2Format                      : AC-3Format/Info                 : Audio Coding 3Codec ID                    : A_AC3Duration                    : 21 min 2 sBit rate mode               : ConstantBit rate                    : 256 kb/sChannel(s)                  : 2 channelsChannel positions           : Front: L RSampling rate               : 48.0 kHzFrame rate                  : 31.250 FPS (1536 SPF)Bit depth                   : 16 bitsCompression mode            : LossyStream size                 : 38.5 MiB (8%)Title                       : Dub [Fox Kids]Language                    : RussianService kind                : Complete MainDefault                     : YesForced                      : No

Для скачки контента: [Установить программу-клиент] и кликнуть по - СкачатьБезопасность: клиент проверен АВ Касперского

[asmlocator.ru].t523436.torrent 
Торрент: Зарегистрирован [ 2018-04-16 11:50 ] · C14D54469C6D7CC66E385D585054D49E108C702F

Скачать .torrent

Скачать

55 KB

Статус: проверено
Скачан: 0 раз
Размер: 10,42 GB
terms.php
[Профиль] [ЛС]
Показать сообщения:    
Ответить на тему

Текущее время: 19-Июл 00:17

Часовой пояс: UTC ± 0



Вы не можете начинать темы
Вы не можете отвечать на сообщения
Вы не можете редактировать свои сообщения
Вы не можете удалять свои сообщения
Вы не можете голосовать в опросах
Вы не можете прикреплять файлы к сообщениям
Вы можете скачивать файлы