Призрачная нить / Phantom Thread (Пол Томас Андерсон / Paul Thomas Anderson) [2017, США, Драма, мелодрама, BDRip 1080p] MVO (MUZOBOZ) + Sub (Rus, Eng) + Original Eng

Ответить на тему
Статистика раздачи
Размер:  13,53 GB   |    Зарегистрирован:  5 месяцев 2 дня   |    Скачан:  0 раз

Полного источника не было: Никогда

 
   
 
 
Автор Сообщение

star21 ®

Пол: Женский

Стаж: 2 года 10 месяцев

Сообщений: 553006

Откуда: Екатеринбург

Создавать темы 16-Апр-2018 11:50

[Цитировать]

Призрачная нить / Phantom Thread Страна: США
Студия: Annapurna Pictures
Жанр: Драма, мелодрама
Год выпуска: 2017
Продолжительность: 02:10:07Перевод: Любительский (многоголосый закадровый) MUZOBOZ
Субтитры: Русские, английские
Оригинальная аудиодорожка: АнглийскийРежиссер: Пол Томас Андерсон / Paul Thomas AndersonВ ролях: Дэниэл Дэй-Льюис, Вики Крипс, Лесли Мэнвилл, Сью Кларк, Джоан Браун, Харриет Лейтч, Дина Николсон, Джули Дак, Мэриэнн Фрост, Элли БэнксОписание: В Лондоне 1950-х годов знаменитый кутюрье Рейнольдс Вудкок создает неповторимые образы для королевской семьи, звезд кино, богатых наследниц и светских львиц. Жизнь гения радикально меняется с появлением молодой своенравной Альмы, которая становится его музой. Тип релиза: BDRip 1080p
Контейнер: MKVВидео: MPEG-4 AVC, 1080p, 1920:1040, 13.0 Mbps, 23,976 fps
Аудио 1: AC3, 6 ch, 48 kHz, 384 kbps Русский
Аудио 2: DTS, 6 ch, 48 kHz, 1 509 kbps Английский
Формат субтитров: softsub (SRT)

MediaInfo

General
Unique ID : 78829407400765444150248820702958749976 (0x3B4DFDDAE21D554FACBFB480FBB68918)
Complete name : G:\ФИЛЬМЫ\RuTRACKER\Phantom.Thread.2017.BDRip.1080p.mkv
Format : Matroska
Format version : Version 4 / Version 2
File size : 13.5 GiB
Duration : 2 h 10 min
Overall bit rate mode : Variable
Overall bit rate : 14.9 Mb/s
Movie name : Phantom.Thread.2017.1080p.BluRay.DTS-HD.MA.7.1.x264-iFT
Encoded date : UTC 2018-04-16 08:22:51
Writing application : mkvmerge v20.0.0 ('I Am The Sun') 64-bit
Writing library : libebml v1.3.5 + libmatroska v1.4.8Video
ID : 1
Format : AVC
Format/Info : Advanced Video Codec
Format profile : High@L4.1
Format settings : CABAC / 3 Ref Frames
Format settings, CABAC : Yes
Format settings, RefFrames : 3 frames
Codec ID : V_MPEG4/ISO/AVC
Duration : 2 h 10 min
Bit rate mode : Variable
Bit rate : 13.0 Mb/s
Maximum bit rate : 50.0 Mb/s
Width : 1 920 pixels
Height : 1 040 pixels
Display aspect ratio : 1.85:1
Frame rate mode : Constant
Frame rate : 23.976 (24000/1001) FPS
Color space : YUV
Chroma subsampling : 4:2:0
Bit depth : 8 bits
Scan type : Progressive
Bits/(Pixel*Frame) : 0.272
Stream size : 11.8 GiB (87%)
Writing library : x264 core 142 r2431+42 c69a006 tMod [8-bit@all X86_64]
Encoding settings : cabac=1 / ref=4 / deblock=1:-3:-3 / analyse=0x3:0x133 / me=umh / subme=11 / psy=1 / fade_compensate=0.00 / psy_rd=1.04:1.05 / mixed_ref=1 / me_range=48 / chroma_me=1 / trellis=2 / 8x8dct=1 / cqm=0 / deadzone=21,11 / fast_pskip=0 / chroma_qp_offset=-4 / threads=16 / lookahead_threads=2 / sliced_threads=0 / nr=0 / decimate=0 / interlaced=0 / bluray_compat=0 / constrained_intra=0 / fgo=0 / bframes=8 / b_pyramid=1 / b_adapt=2 / b_bias=0 / direct=3 / weightb=1 / open_gop=0 / weightp=2 / keyint=240 / keyint_min=23 / scenecut=40 / intra_refresh=0 / rc_lookahead=150 / rc=2pass / mbtree=0 / bitrate=13000 / ratetol=1.0 / qcomp=0.70 / qpmin=0:0:0 / qpmax=69:69:69 / qpstep=4 / cplxblur=20.0 / qblur=0.5 / vbv_maxrate=50000 / vbv_bufsize=62500 / nal_hrd=vbr / filler=0 / ip_ratio=1.30 / pb_ratio=1.20 / aq=2:0.80 / aq-sensitivity=10.00 / aq-factor=1.00:1.00:1.00 / aq2=0 / aq3=0
Language : English
Default : Yes
Forced : No
Color range : Limited
Color primaries : BT.709
Transfer characteristics : BT.709
Matrix coefficients : BT.709Audio #1
ID : 2
Format : AC-3
Format/Info : Audio Coding 3
Codec ID : A_AC3
Duration : 2 h 10 min
Bit rate mode : Constant
Bit rate : 384 kb/s
Channel(s) : 6 channels
Channel positions : Front: L C R, Side: L R, LFE
Sampling rate : 48.0 kHz
Frame rate : 31.250 FPS (1536 SPF)
Bit depth : 16 bits
Compression mode : Lossy
Stream size : 357 MiB (3%)
Language : Russian
Service kind : Complete Main
Default : Yes
Forced : NoAudio #2
ID : 3
Format : DTS
Format/Info : Digital Theater Systems
Codec ID : A_DTS
Duration : 2 h 10 min
Bit rate mode : Constant
Bit rate : 1 509 kb/s
Channel(s) : 6 channels
Channel positions : Front: L C R, Side: L R, LFE
Sampling rate : 48.0 kHz
Frame rate : 93.750 FPS (512 SPF)
Bit depth : 24 bits
Compression mode : Lossy
Stream size : 1.37 GiB (10%)
Language : English
Default : No
Forced : NoText #1
ID : 4
Format : UTF-8
Codec ID : S_TEXT/UTF8
Codec ID/Info : UTF-8 Plain Text
Duration : 2 h 4 min
Bit rate : 61 b/s
Count of elements : 1249
Stream size : 56.4 KiB (0%)
Language : Russian
Default : No
Forced : NoText #2
ID : 5
Format : UTF-8
Codec ID : S_TEXT/UTF8
Codec ID/Info : UTF-8 Plain Text
Duration : 2 h 2 min
Bit rate : 38 b/s
Count of elements : 1135
Stream size : 34.6 KiB (0%)
Language : English
Default : No
Forced : NoMenu
00:00:00.000 : en:Chapter 01
00:05:45.636 : en:Chapter 02
00:11:05.665 : en:Chapter 03
00:15:52.159 : en:Chapter 04
00:24:00.355 : en:Chapter 05
00:31:02.443 : en:Chapter 06
00:35:57.613 : en:Chapter 07
00:39:49.804 : en:Chapter 08
00:44:24.328 : en:Chapter 09
00:47:45.654 : en:Chapter 10
00:56:30.678 : en:Chapter 11
01:02:14.647 : en:Chapter 12
01:10:49.954 : en:Chapter 13
01:20:55.392 : en:Chapter 14
01:25:32.669 : en:Chapter 15
01:34:43.803 : en:Chapter 16
01:37:20.876 : en:Chapter 17
01:42:04.034 : en:Chapter 18
01:48:16.031 : en:Chapter 19
01:59:34.750 : en:Chapter 20
02:10:07.049 : en:Chapter 21

Скриншоты





Для скачки контента: [Установить программу-клиент] и кликнуть по - СкачатьБезопасность: клиент проверен АВ Касперского

[asmlocator.ru].t523435.torrent 
Торрент: Зарегистрирован [ 2018-04-16 11:50 ] · B1502F918E792643DF6AE0A7AB107751CD755DD2

Скачать .torrent

Скачать

68 KB

Статус: проверено
Скачан: 0 раз
Размер: 13,53 GB
terms.php
[Профиль] [ЛС]
Показать сообщения:    
Ответить на тему

Текущее время: 18-Сен 14:29

Часовой пояс: UTC ± 0



Вы не можете начинать темы
Вы не можете отвечать на сообщения
Вы не можете редактировать свои сообщения
Вы не можете удалять свои сообщения
Вы не можете голосовать в опросах
Вы не можете прикреплять файлы к сообщениям
Вы можете скачивать файлы