Liszt, Schubert, Wagner, Widman - West-Eastern Divan Orchestra at Proms 2016 (Martha Argerich, Daniel Barenboim) [2018, Classical, Blu-ray]

Ответить на тему
Статистика раздачи
Размер:  21,05 GB   |    Зарегистрирован:  8 месяцев 2 дня   |    Скачан:  0 раз

Полного источника не было: Никогда

 
   
 
 
Автор Сообщение

star21 ®

Пол: Женский

Стаж: 3 года 1 месяц

Сообщений: 552863

Откуда: Екатеринбург

Создавать темы 16-Апр-2018 09:30

[Цитировать]

Liszt, Schubert, Wagner, Widman - West-Eastern Divan Orchestra at Proms 2016 (Martha Argerich, Daniel Barenboim) Год выпуска: 2018Лейбл: EuroArts Music International
Страна-производитель: EU
Жанр: Classical
Продолжительность: 1:55:27
Язык: English
Режиссер/Хореограф: John Williams
Исполнители:
Martha Argerich (piano)
Daniel Barenboim (conductor)
West-Eastern Divan OrchestraТреклист:
01. Opening
02. Jorg Widmann: Con Brio
03. Franz Liszt: Piano Concerto No 1 in E flat major
04. Franz Schubert: Rondo in A major D951 Richard Wagner
05. Richard Wagner: Overture to Tannhauser
06. Dawn, Siegfried’s Rhine Journey and Funeral March from Gotterdammerung
07. Overture to Die Meistersinger von Nurnberg
08. Prelude to Die Meistersinger von Nurnberg, Act III
09. Prelude to Lohengrin, Act III
10. Applause & End CreditsДоп. информация: https://www.amazon.com/West-Eastern-Divan-Orchestra-Proms-Blu-ray/dp/B0789G9LR9
Качество видео: Blu-ray
Формат/Контейнер: BDMV
Видео кодек: H.264
Аудио кодек: PCM, DTS
Видео поток: Video: MPEG-4 AVC Video / 19778 kbps / 1080i / 29.970 fps / 16:9 / High Profile 4.1
Аудио поток: Audio #1 Undetermined / LPCM Audio / 2.0 / 48 kHz / 2304 kbps / 24-bit
Аудио поток: Audio #2 Undetermined / DTS-HD Master Audio / 5.0 / 48 kHz / 1958 kbps / 16-bit (DTS Core: 5.0 / 48 kHz / 1509 kbps / 16-bit)

BackCover

Скриншоты




BDInfo

Disc Title: BBC Proms 2016 - Martha Argerich, Daniel Barenboim, West-Eastern Divan Orchestra
Disc Size: 22,600,648,273 bytes
Protection: AACS
BD-Java: No
BDInfo: 0.7.1Notes:BDINFO HOME:
Cinema Squid
http://www.cinemasquid.com/blu-ray/tools/bdinfoINCLUDES FORUMS REPORT FOR:
AVS Forum Blu-ray Audio and Video Specifications Thread
http://www.avsforum.com/avs-vb/showthread.php?t=1155731********************
PLAYLIST: 00000.MPLS
********************<--- BEGIN FORUMS PASTE --->
Total   Video
Title                                                           Codec   Length  Movie Size      Disc Size       Bitrate Bitrate Main Audio Track                          Secondary Audio Track
-----                                                           ------  ------- --------------  --------------  ------- ------- ------------------                        ---------------------
00000.MPLS                                                      AVC     1:55:27 22,038,282,240  22,600,648,273  25.45   19.78   LPCM 2.0 2304Kbps (48kHz/24-bit)          DTS-HD Master 5.0 1958Kbps (48kHz/16-bit)
Total   Video
Title                                                           Codec   Length  Movie Size      Disc Size       Bitrate Bitrate Main Audio Track                          Secondary Audio Track
-----                                                           ------  ------- --------------  --------------  ------- ------- ------------------                        ---------------------
00007.MPLS                                                      AVC     0:00:22 6,402,048       22,600,648,273  2.28    2.10
Код:
DISC INFO:Disc Title: BBC Proms 2016 - Martha Argerich, Daniel Barenboim, West-Eastern Divan Orchestra
Disc Size: 22,600,648,273 bytes
Protection: AACS
BD-Java: No
BDInfo: 0.7.1PLAYLIST REPORT:Name: 00007.MPLS
Length: 0:00:22.422 (h:m:s.ms)
Size: 6,402,048 bytes
Total Bitrate: 2.28 MbpsVIDEO:Codec Bitrate Description
----- ------- -----------
MPEG-4 AVC Video 2098 kbps 1080i / 29.970 fps / 16:9 / High Profile 4.1FILES:Name Time In Length Size Total Bitrate
---- ------- ------ ---- -------------
00011.M2TS 0:00:00.000 0:00:14.047 4,294,656 2,446
00008.M2TS 0:00:14.047 0:00:08.041 2,095,104 2,084
00007.M2TS 0:00:22.088 0:00:00.333 12,288 295CHAPTERS:Number Time In Length Avg Video Rate Max 1-Sec Rate Max 1-Sec Time Max 5-Sec Rate Max 5-Sec Time Max 10Sec Rate Max 10Sec Time Avg Frame Size Max Frame Size Max Frame Time
------ ------- ------ -------------- -------------- -------------- -------------- -------------- -------------- -------------- -------------- -------------- --------------
1 0:00:00.000 0:00:14.047 2,263 kbps 6,028 kbps 00:00:00.033 2,609 kbps 00:00:00.033 2,161 kbps 00:00:00.000 9,418 bytes 118,833 bytes 00:00:08.408
2 0:00:14.047 0:00:08.375 1,820 kbps 3,711 kbps 00:00:15.148 2,363 kbps 00:00:14.047 0 kbps 00:00:00.000 7,619 bytes 26,315 bytes 00:00:17.250STREAM DIAGNOSTICS:File PID Type Codec Language Seconds Bitrate Bytes Packets
---- --- ---- ----- -------- -------------- -------------- ------------- -----
00011.M2TS 4113 (0x1011) 0x1B AVC 13.914 2,284 3,972,736 21,896
00008.M2TS 4113 (0x1011) 0x1B AVC 7.975 1,906 1,900,213 10,633
00007.M2TS 4113 (0x1011) 0x1B AVC 0.200 244 6,107 41
<---- END FORUMS PASTE ---->QUICK SUMMARY:Disc Title: BBC Proms 2016 - Martha Argerich, Daniel Barenboim, West-Eastern Divan Orchestra
Disc Size: 22,600,648,273 bytes
Protection: AACS
BD-Java: No
Playlist: 00007.MPLS
Size: 6,402,048 bytes
Length: 0:00:22.422
Total Bitrate: 2.28 Mbps
Video: MPEG-4 AVC Video / 2098 kbps / 1080i / 29.970 fps / 16:9 / High Profile 4.1

Для скачки контента: [Установить программу-клиент] и кликнуть по - СкачатьБезопасность: клиент проверен АВ Касперского

[asmlocator.ru].t523398.torrent 
Торрент: Зарегистрирован [ 2018-04-16 09:30 ] · 4D9C1481038A73F208DA325091762439E6814078

Скачать .torrent

Скачать

29 KB

Статус: проверено
Скачан: 0 раз
Размер: 21,05 GB
terms.php
[Профиль] [ЛС]
Показать сообщения:    
Ответить на тему

Текущее время: 19-Дек 04:29

Часовой пояс: UTC ± 0



Вы не можете начинать темы
Вы не можете отвечать на сообщения
Вы не можете редактировать свои сообщения
Вы не можете удалять свои сообщения
Вы не можете голосовать в опросах
Вы не можете прикреплять файлы к сообщениям
Вы можете скачивать файлы