Алла Пугачёва. Сказки про любовь [2003, Pop, IPTV]

Ответить на тему
Статистика раздачи
Размер:  642 MB   |    Зарегистрирован:  5 месяцев 2 дня   |    Скачан:  0 раз

Полного источника не было: 5 месяцев 1 день

 
   
 
 
Автор Сообщение

star21 ®

Пол: Женский

Стаж: 2 года 10 месяцев

Сообщений: 553006

Откуда: Екатеринбург

Создавать темы 15-Апр-2018 23:05

[Цитировать]

Алла Пугачёва. Сказки про любовь Страна: Россия
Жанр: Pop
Продолжительность: 00:29:17
Год выпуска: 2003
Описание:
Режиссер-постановщик проекта: Ирина Миронова
В ролях:
Сказочница - Алла Пугачева
Герой - Сэм Клебанов
Третий лишний - Сергей ЗверевТреклист:
01. Любовь
02. Голова
03. Приехали
04. Все ушли в осень
05. Не плачь
06. Не сгорюИсточник: собственный рипКачество: IPTV
Контейнер: TS/M2TS
Видео кодек: H.264
Аудио кодек: MP2
Видео: H.264, 720x576, 4:3, 2800kbps, 25fps
Аудио: MPEG2, 192kbps, 48kHz, stereo

MediaInfo

GeneralID                          : 1 (0x1)Complete name               : C:\Users\Антициклон\Desktop\Алла Пугачёва. Сказки про любовь.tsFormat                      : MPEG-TSFile size                   : 642 MiBDuration                    : 29 min 17 sOverall bit rate mode       : VariableOverall bit rate            : 3 063 kb/sVideoID                          : 3001 (0xBB9)Menu ID                     : 20 (0x14)Format                      : AVCFormat/Info                 : Advanced Video CodecFormat profile              : Main@L3Format settings             : CABAC / 3 Ref FramesFormat settings, CABAC      : YesFormat settings, ReFrames   : 3 framesFormat settings, GOP        : M=4, N=28Codec ID                    : 27Duration                    : 29 min 17 sBit rate                    : 2 718 kb/sWidth                       : 720 pixelsHeight                      : 576 pixelsDisplay aspect ratio        : 4:3Frame rate                  : 25.000 FPSStandard                    : ComponentColor space                 : YUVChroma subsampling          : 4:2:0Bit depth                   : 8 bitsScan type                   : InterlacedScan type, store method     : Separated fieldsScan order                  : Top Field FirstBits/(Pixel*Frame)          : 0.262Stream size                 : 569 MiB (89%)Color range                 : LimitedColor primaries             : BT.601 PALTransfer characteristics    : BT.470 System B/GMatrix coefficients         : BT.470 System B/GAudioID                          : 3151 (0xC4F)Menu ID                     : 20 (0x14)Format                      : MPEG AudioFormat version              : Version 1Format profile              : Layer 2Codec ID                    : 3Duration                    : 29 min 17 sBit rate mode               : ConstantBit rate                    : 192 kb/sChannel(s)                  : 2 channelsSampling rate               : 48.0 kHzFrame rate                  : 41.667 FPS (1152 SPF)Compression mode            : LossyDelay relative to video     : -120 msStream size                 : 40.2 MiB (6%)Language                    : English

Скриншоты

Для скачки контента: [Установить программу-клиент] и кликнуть по - СкачатьБезопасность: клиент проверен АВ Касперского

[asmlocator.ru].t523336.torrent 
Торрент: Зарегистрирован [ 2018-04-15 23:05 ] · 27505D8445188538FFE56D1C5A99212A2E3B8B3C

Скачать .torrent

Скачать

13 KB

Статус: проверено
Скачан: 0 раз
Размер: 642 MB
terms.php
[Профиль] [ЛС]
Показать сообщения:    
Ответить на тему

Текущее время: 18-Сен 14:30

Часовой пояс: UTC ± 0



Вы не можете начинать темы
Вы не можете отвечать на сообщения
Вы не можете редактировать свои сообщения
Вы не можете удалять свои сообщения
Вы не можете голосовать в опросах
Вы не можете прикреплять файлы к сообщениям
Вы можете скачивать файлы