Дыши / Breathe (Джеймс Доэрти / James Doherty) [2015, Великобритания, Ирландия, короткометражка, драма, WEB-DLRip-AVC] VO + Sub Rus + Original Eng

Ответить на тему
Статистика раздачи
Размер:  192 MB   |    Зарегистрирован:  3 месяца 3 дня   |    Скачан:  0 раз

Полного источника не было: 5 дней

 
   
 
 
Автор Сообщение

star21 ®

Пол: Женский

Стаж: 2 года 8 месяцев

Сообщений: 532152

Откуда: Екатеринбург

Создавать темы 15-Апр-2018 23:05

[Цитировать]

Дыши / Breathe Страна: Великобритания / Ирландия
Жанр: короткометражка, драма
Год выпуска: 2015
Продолжительность: 00:14:26Перевод: Одноголосый закадровый
Субтитры: русские, английские, арабские, китайские, испанские, португальские
Оригинальная аудиодорожка: английскийРежиссер: Джеймс Доэрти / James DohertyВ ролях: Джон Коннорс, Линн Рафферти, Ли О'ДонохьюОписание: Фильм об отце, который обеспокоен тем, что его сын слишком «слабым» и пытается воспитать в нем жесткость.Сэмпл: http://multi-up.com/1195101Качество видео: WEB-DLRip-AVC
Формат видео: MKVВидео: AVC at 1436 Кбит/сек : 1280 x 720 (1.778) at 24.000 fps
Аудио 1: AAC at 159 Кбит/сек : 2 канала, 96,0 КГц / 48,0 КГц Language : ru
Аудио 2: AAC at 256 Кбит/сек : 2 канала, 48,0 КГц Language : en
Формат субтитров: prerendered (IDX+SUB)
Доп. информация о субтитрах: русские, английские, арабские, китайские, испанские, португальские

MediaInfo

ОбщееУникальный идентификатор                 : 199007423358871018394391109530790008688 (0x95B76F822F6EA3229BEABAE6092A1770)Полное имя                               : F:\С моей озвучкой\Дыши.mkvФормат                                   : MatroskaВерсия формата                           : Version 4 / Version 2Размер файла                             : 192 МбайтПродолжительность                        : 14 м. 26 с.Общий поток                              : 1856 Кбит/секДата кодирования                         : UTC 2018-04-15 19:48:54Программа кодирования                    : mkvmerge v7.9.0 ('Birds') 64bitБиблиотека кодирования                   : libebml v1.3.1 + libmatroska v1.4.2ВидеоИдентификатор                            : 1Формат                                   : AVCФормат/Информация                        : Advanced Video CodecПрофиль формата                          : High@L3.2Параметр CABAC формата                   : ДаПараметр ReFrames формата                : 5 кадровИдентификатор кодека                     : V_MPEG4/ISO/AVCПродолжительность                        : 14 м. 26 с.Битрейт                                  : 1436 Кбит/секШирина                                   : 1280 пикселейВысота                                   : 720 пикселейСоотношение сторон                       : 16:9Режим частоты кадров                     : ПостоянныйЧастота кадров                           : 24,000 кадра/секЦветовое пространство                    : YUVСубдискретизация насыщенности            : 4:2:0Битовая глубина                          : 8 битТип развёртки                            : ПрогрессивнаяБит/(Пиксели*Кадры)                      : 0.065Размер потока                            : 148 Мбайт (77%)Библиотека кодирования                   : x264 core 150 r10 df79067Настройки программы                      : cabac=1 / ref=5 / deblock=1:0:0 / analyse=0x3:0x113 / me=hex / subme=8 / psy=1 / psy_rd=1.00:0.00 / mixed_ref=1 / me_range=16 / chroma_me=1 / trellis=2 / 8x8dct=1 / cqm=0 / deadzone=21,11 / fast_pskip=1 / chroma_qp_offset=-2 / threads=22 / lookahead_threads=3 / sliced_threads=0 / nr=0 / decimate=1 / interlaced=0 / bluray_compat=0 / stitchable=1 / constrained_intra=0 / bframes=3 / b_pyramid=2 / b_adapt=1 / b_bias=0 / direct=3 / weightb=1 / open_gop=0 / weightp=2 / keyint=infinite / keyint_min=24 / scenecut=40 / intra_refresh=0 / rc_lookahead=50 / rc=crf / mbtree=1 / crf=20.0 / qcomp=0.60 / qpmin=5 / qpmax=69 / qpstep=4 / vbv_maxrate=2750 / vbv_bufsize=7500 / crf_max=0.0 / nal_hrd=none / filler=0 / ip_ratio=1.40 / aq=1:1.00Default                                  : ДаForced                                   : НетЦветовой диапазон                        : LimitedОсновные цвета                           : BT.709Характеристики трансфера                 : BT.709Коэффициенты матрицы                     : BT.709Аудио #1Идентификатор                            : 2Формат                                   : AACФормат/Информация                        : Advanced Audio CodecПрофиль формата                          : HE-AAC / LCИдентификатор кодека                     : A_AACПродолжительность                        : 14 м. 26 с.Битрейт                                  : 159 Кбит/секКаналы                                   : 2 каналаРасположение каналов                     : Front: L RЧастота                                  : 96,0 КГц / 48,0 КГцЧастота кадров                           : 46,875 кадров/сек (1024 spf)Метод сжатия                             : С потерямиРазмер потока                            : 16,5 Мбайт (9%)Язык                                     : RussianDefault                                  : ДаForced                                   : НетАудио #2Идентификатор                            : 3Формат                                   : AACФормат/Информация                        : Advanced Audio CodecПрофиль формата                          : LCИдентификатор кодека                     : A_AACПродолжительность                        : 14 м. 26 с.Битрейт                                  : 256 Кбит/секКаналы                                   : 2 каналаРасположение каналов                     : Front: L RЧастота                                  : 48,0 КГцЧастота кадров                           : 46,875 кадров/сек (1024 spf)Метод сжатия                             : С потерямиРазмер потока                            : 26,5 Мбайт (14%)Язык                                     : EnglishDefault                                  : НетForced                                   : НетТекст #1Идентификатор                            : 4Формат                                   : UTF-8Идентификатор кодека                     : S_TEXT/UTF8Идентификатор кодека/Информация          : UTF-8 Plain TextПродолжительность                        : 12 м. 53 с.Битрейт                                  : 56 бит/секElementCount                             : 138Размер потока                            : 5,36 Кбайт (0%)Default                                  : ДаForced                                   : НетТекст #2Идентификатор                            : 5Формат                                   : UTF-8Идентификатор кодека                     : S_TEXT/UTF8Идентификатор кодека/Информация          : UTF-8 Plain TextПродолжительность                        : 12 м. 53 с.Битрейт                                  : 57 бит/секElementCount                             : 138Размер потока                            : 5,44 Кбайт (0%)Default                                  : НетForced                                   : НетТекст #3Идентификатор                            : 6Формат                                   : UTF-8Идентификатор кодека                     : S_TEXT/UTF8Идентификатор кодека/Информация          : UTF-8 Plain TextПродолжительность                        : 12 м. 54 с.Битрейт                                  : 45 бит/секElementCount                             : 129Размер потока                            : 4,29 Кбайт (0%)Default                                  : НетForced                                   : НетТекст #4Идентификатор                            : 7Формат                                   : UTF-8Идентификатор кодека                     : S_TEXT/UTF8Идентификатор кодека/Информация          : UTF-8 Plain TextПродолжительность                        : 12 м. 53 с.Битрейт                                  : 37 бит/секElementCount                             : 139Размер потока                            : 3,57 Кбайт (0%)Default                                  : НетForced                                   : НетТекст #5Идентификатор                            : 8Формат                                   : UTF-8Идентификатор кодека                     : S_TEXT/UTF8Идентификатор кодека/Информация          : UTF-8 Plain TextПродолжительность                        : 12 м. 53 с.Битрейт                                  : 43 бит/секElementCount                             : 124Размер потока                            : 4,12 Кбайт (0%)Default                                  : НетForced                                   : НетТекст #6Идентификатор                            : 9Формат                                   : UTF-8Идентификатор кодека                     : S_TEXT/UTF8Идентификатор кодека/Информация          : UTF-8 Plain TextПродолжительность                        : 12 м. 53 с.Битрейт                                  : 35 бит/секElementCount                             : 138Размер потока                            : 3,38 Кбайт (0%)Default                                  : НетForced                                   : НетТекст #7Идентификатор                            : 10Формат                                   : UTF-8Идентификатор кодека                     : S_TEXT/UTF8Идентификатор кодека/Информация          : UTF-8 Plain TextПродолжительность                        : 12 м. 53 с.Битрейт                                  : 36 бит/секElementCount                             : 138Размер потока                            : 3,40 Кбайт (0%)Default                                  : НетForced                                   : Нет

Скриншоты

Для скачки контента: [Установить программу-клиент] и кликнуть по - СкачатьБезопасность: клиент проверен АВ Касперского

[asmlocator.ru].t523310.torrent 
Торрент: Зарегистрирован [ 2018-04-15 23:05 ] · 9767270E15650092035B6E1FA704805FBE85DA0F

Скачать .torrent

Скачать

15 KB

Статус: проверено
Скачан: 0 раз
Размер: 192 MB
terms.php
[Профиль] [ЛС]
Показать сообщения:    
Ответить на тему

Текущее время: 19-Июл 02:14

Часовой пояс: UTC ± 0



Вы не можете начинать темы
Вы не можете отвечать на сообщения
Вы не можете редактировать свои сообщения
Вы не можете удалять свои сообщения
Вы не можете голосовать в опросах
Вы не можете прикреплять файлы к сообщениям
Вы можете скачивать файлы