(New Age Soul) [CD] Ted & Majella - Better Together - 2017, FLAC (image+.cue), lossless

Ответить на тему
Статистика раздачи
Размер:  529 MB   |    Зарегистрирован:  5 месяцев 2 дня   |    Скачан:  0 раз

Полного источника не было: 4 месяца 3 дня

 
   
 
 
Автор Сообщение

star21 ®

Пол: Женский

Стаж: 2 года 10 месяцев

Сообщений: 553006

Откуда: Екатеринбург

Создавать темы 15-Апр-2018 18:55

[Цитировать]

Ted & Majella / Better Together Жанр: New Age Soul
Носитель: CD
Страна-производитель диска (релиза): UK
Год издания: 2017
Издатель (лейбл): Turneround Music
Номер по каталогу: TRM-01-CD
Аудиокодек: FLAC (*.flac)
Тип рипа: image+.cue
Битрейт аудио: lossless
Продолжительность: 1:04:35
Источник (релизер): Boris1
Наличие сканов в содержимом раздачи: даТреклист:
01. Better Together (4:18)
02. Dance With Me (5:30)
03. Instairs (5:08)
04. She (5:36)
05. Inside You (4:45)
06. Time To Fall Away (4:46)
07. Love Life (5:31)
08. Karmony (6:05)
09. This Is It (4:09)
10. Truer Word Said (4:29)
11. I Found A Place (8:12)
12. If You Believe (6:06)

Лог создания рипа

Exact Audio Copy V1.0 beta 3 from 29. August 2011EAC extraction logfile from 11. April 2018, 21:36Ted & Majella / Better TogetherUsed drive  : PIONEER BD-RW   BDR-TD03   Adapter: 0  ID: 1Read mode               : SecureUtilize accurate stream : YesDefeat audio cache      : YesMake use of C2 pointers : NoRead offset correction                      : 667Overread into Lead-In and Lead-Out          : NoFill up missing offset samples with silence : YesDelete leading and trailing silent blocks   : NoNull samples used in CRC calculations       : YesUsed interface                              : Native Win32 interface for Win NT & 2000Used output format              : User Defined EncoderSelected bitrate                : 768 kBit/sQuality                         : HighAdd ID3 tag                     : NoCommand line compressor         : C:\Program Files (x86)\Exact Audio Copy\FLAC\FLAC.EXEAdditional command line options : -6 -V -T "ARTIST=%artist%" -T "TITLE=%title%" -T "ALBUM=%albumtitle%" -T "DATE=%year%" -T "TRACKNUMBER=%tracknr%" -T "GENRE=%genre%" -T "COMMENT=%comment%" -T "BAND=%albuminterpret%" -T "ALBUMARTIST=%albuminterpret%" -T "COMPOSER=%composer%" %haslyrics%--tag-from-file=LYRICS="%lyricsfile%"%haslyrics% -T "DISCNUMBER=%cdnumber%" -T "TOTALDISCS=%totalcds%" -T "TOTALTRACKS=%numtracks%" %hascover%--picture="%coverfile%"%hascover% %source% -o %dest%TOC of the extracted CD     Track |   Start  |  Length  | Start sector | End sector    ---------------------------------------------------------        1  |  0:00.00 |  4:18.42 |         0    |    19391        2  |  4:18.42 |  5:30.55 |     19392    |    44196        3  |  9:49.22 |  5:08.29 |     44197    |    67325        4  | 14:57.51 |  5:36.68 |     67326    |    92593        5  | 20:34.44 |  4:45.40 |     92594    |   114008        6  | 25:20.09 |  4:46.63 |    114009    |   135521        7  | 30:06.72 |  5:31.69 |    135522    |   160415        8  | 35:38.66 |  6:05.72 |    160416    |   187862        9  | 41:44.63 |  4:09.64 |    187863    |   206601       10  | 45:54.52 |  4:29.29 |    206602    |   226805       11  | 50:24.06 |  8:12.73 |    226806    |   263778       12  | 58:37.04 |  6:06.68 |    263779    |   291296Range status and errorsSelected range     Filename C:\Users\Deris\Desktop\kpnemo.eu\TedMaj\Ted & Majella - Better Together.wav     Peak level 97.8 %     Extraction speed 5.0 X     Range quality 100.0 %     Test CRC 044B542A     Copy CRC 044B542A     Copy OKNo errors occurredAccurateRip summaryTrack  1  not present in databaseTrack  2  not present in databaseTrack  3  not present in databaseTrack  4  not present in databaseTrack  5  not present in databaseTrack  6  not present in databaseTrack  7  not present in databaseTrack  8  not present in databaseTrack  9  not present in databaseTrack 10  not present in databaseTrack 11  not present in databaseTrack 12  not present in databaseNone of the tracks are present in the AccurateRip databaseEnd of status report---- CUETools DB Plugin V2.1.3[CTDB TOCID: VEbVxBARYUX1KDZT8u3mux28b1w-] disk not present in database, Submit result: database access error: The request was aborted: The request was canceled.==== Log checksum 77CC5572CC44EF713FC0459D9291E30D0F70F3AF7B8A07A33D4760328FCD0E82 ====

DR Log

foobar2000 1.3.13 / Замер динамического диапазона (DR) 1.1.1Дата отчёта:  2018-04-13 20:55:49--------------------------------------------------------------------------------Анализ:   Ted & Majella / Better Together--------------------------------------------------------------------------------DR         Пики         RMS           Продолжительность трека--------------------------------------------------------------------------------DR7       -0.20 дБ    -9.81 дБ      4:19 01-Better TogetherDR8       -0.20 дБ    -9.81 дБ      5:31 02-Dance With MeDR8       -0.19 дБ    -9.99 дБ      5:08 03-InstairsDR7       -0.19 дБ   -10.15 дБ      5:37 04-SheDR9       -0.20 дБ   -12.69 дБ      4:46 05-Inside YouDR9       -0.20 дБ   -13.15 дБ      4:47 06-Time To Fall AwayDR8       -0.19 дБ    -9.62 дБ      5:32 07-Love LifeDR8       -0.20 дБ    -9.59 дБ      6:06 08-KarmonyDR9       -0.20 дБ   -11.17 дБ      4:10 09-This Is ItDR9       -0.20 дБ   -13.46 дБ      4:29 10-Truer Word SaidDR10      -0.20 дБ   -13.69 дБ      8:13 11-I Found A PlaceDR9       -0.20 дБ   -11.11 дБ      6:07 12-If You Believe--------------------------------------------------------------------------------Количество треков: 12Реальные значения DR: DR9Частота:   44100 ГцКаналов:   2Разрядность:   16Битрейт:   784 кбит/сКодек:   FLAC================================================================================

Об исполнителе (группе)

Better Together is the NEW STUDIO ALBUM by one of the original founder members of Wishbone Ash TED TURNER and his wife MAJELLA.
Their first artistic collaboration, the “Better Together” album has prompted their international fan base to welcome their creation as the birth of a new musical genre: “New Age Soul”.
With a playbook of 12 original songs inspired by their thirteen-year journey as first friends, then lovers, and, more recently, husband and wife collaborators, Better Together is a hauntingly lyrical, soul- touching testament to their journey from getting to know one another to discovering their true selves through music, which, they say, “has been the glue that brought and has held them together throughout”.
The album will be supported by a worldwide publicity campaign.
Раздаю до первых 5-ти скачавших, на раздачи не возвращаюсь...

Для скачки контента: [Установить программу-клиент] и кликнуть по - СкачатьБезопасность: клиент проверен АВ Касперского

[asmlocator.ru].t523277.torrent 
Торрент: Зарегистрирован [ 2018-04-15 18:55 ] · 73DFEE83F7C37EFD900A8802B6724D598A7608FA

Скачать .torrent

Скачать

12 KB

Статус: проверено
Скачан: 0 раз
Размер: 529 MB
terms.php
[Профиль] [ЛС]
Показать сообщения:    
Ответить на тему

Текущее время: 18-Сен 14:31

Часовой пояс: UTC ± 0



Вы не можете начинать темы
Вы не можете отвечать на сообщения
Вы не можете редактировать свои сообщения
Вы не можете удалять свои сообщения
Вы не можете голосовать в опросах
Вы не можете прикреплять файлы к сообщениям
Вы можете скачивать файлы