[LP][OF] NakamuraEmi - NIPPONNO ONNAWO UTAU Vol.5 - 2018 (J-Pop)

Ответить на тему
Статистика раздачи
Размер:  2,7 GB   |    Зарегистрирован:  8 месяцев 3 дня   |    Скачан:  0 раз

Полного источника не было: 7 месяцев 23 дня

 
   
 
 
Автор Сообщение

star21 ®

Пол: Женский

Стаж: 3 года 1 месяц

Сообщений: 552863

Откуда: Екатеринбург

Создавать темы 15-Апр-2018 16:45

[Цитировать]

NakamuraEmi / NIPPONNO ONNAWO UTAU Vol.5 Формат записи/Источник записи: [LP][OF]
Наличие водяных знаков: Нет
Год издания: 2018
Жанр: J-Pop
Издатель (лейбл): LP Record
Продолжительность: 00:31:44
Наличие сканов в содержимом раздачи: Да (сканы)Треклист:
01. Don't (Album mix)
02. N
03. Kakatte koi yo
04. Shinbun
05. Nami o Matsunosa
06. Hoshi Nante Iwazu
07. Kyoshitsu
08. MotivationТрек №1 - опенинг аниме "Warau Salesman NEW"
Трек №3 - эндинг аниме "MEGALOBOX"Контейнер: DSF (*.dsf)
Тип рипа: tracksРазрядность: 128(5,6 MHz/1 Bit)
Формат: DSD
Количество каналов: 2.0

Лог проверки качества

foobar2000 1.3.17 / Dynamic Range Meter 1.1.1log date: 2018-04-15 16:13:59--------------------------------------------------------------------------------Analyzed: NakamuraEmi / NIPPONNO ONNAWO UTAU Vol.5 [Vinyl]--------------------------------------------------------------------------------DR         Peak         RMS     Duration Track--------------------------------------------------------------------------------DR14     -10.00 dB   -25.96 dB      3:28 01-Don't (Album mix)DR12     -12.71 dB   -27.65 dB      3:42 02-NDR12     -11.04 dB   -25.21 dB      3:15 03-Kakatte koi yoDR12     -12.23 dB   -28.19 dB      3:46 04-ShinbunDR13     -11.63 dB   -26.60 dB      4:58 05-Nami o MatsunosaDR12     -12.00 dB   -26.81 dB      3:52 06-Hoshi Nante IwazuDR13     -11.82 dB   -27.14 dB      4:28 07-KyoshitsuDR14      -9.11 dB   -26.16 dB      4:16 08-Motivation--------------------------------------------------------------------------------Number of tracks:  8Official DR value: DR13Samplerate:        352800 HzChannels:          2Bits per sample:   24Bitrate:           11290 kbpsCodec:             DSD128================================================================================
Источник (релизер): TSDM, Rakuten Shop

Для скачки контента: [Установить программу-клиент] и кликнуть по - СкачатьБезопасность: клиент проверен АВ Касперского

[asmlocator.ru].t523212.torrent 
Торрент: Зарегистрирован [ 2018-04-15 16:45 ] · FAA20A219F8277902DB434EE268A0A99E4995A64

Скачать .torrent

Скачать

55 KB

Статус: проверено
Скачан: 0 раз
Размер: 2,7 GB
terms.php
[Профиль] [ЛС]
Показать сообщения:    
Ответить на тему

Текущее время: 19-Дек 04:28

Часовой пояс: UTC ± 0



Вы не можете начинать темы
Вы не можете отвечать на сообщения
Вы не можете редактировать свои сообщения
Вы не можете удалять свои сообщения
Вы не можете голосовать в опросах
Вы не можете прикреплять файлы к сообщениям
Вы можете скачивать файлы