Variola vera (Натуральная оспа) / Variola vera (Горан Маркович/Goran Markovic) [1982, Югославия, Драма, хоррор, DVDRip] VO (Олег Воротилин)

Ответить на тему
Статистика раздачи
Размер:  750 MB   |    Зарегистрирован:  5 месяцев 3 дня   |    Скачан:  0 раз

Полного источника не было: Никогда

 
   
 
 
Автор Сообщение

star21 ®

Пол: Женский

Стаж: 2 года 10 месяцев

Сообщений: 553006

Откуда: Екатеринбург

Создавать темы 15-Апр-2018 08:25

[Цитировать]

Variola vera (Натуральная оспа) / Variola vera Страна: Югославия
Жанр: Драма, хоррор
Год выпуска: 1982
Продолжительность: 01:44:08Перевод: Одноголосый закадровый Олег Воротилин по субтитрам Antonio Salazar
Субтитры: нет
Оригинальная аудиодорожка: нетРежиссер: Горан Маркович/Goran MarkovicВ ролях: Раде Шербеджия, Эрланд Йозефсон, Душица Жегарац, Раде Маркович, Варя ДжукичОписание: Паломник, вернувшийся с Хаджа, привозит с собой смертельную болезнь - оспу (Variola vera) . Положение осложняется тем, что оспа долго время считалась побежденной болезнью - мало кто может ее диагностировать и никто не может ее вылечить. Власти принимают меры со значительным промедлением. Люди в закрытой на карантин больнице, оказавшись наедине с болезнью, показывают свое истинное лицо...Фильм основан на реальных событиях эпидемии оспы в Югославии в 1972 году.Доп. информация: [imdb]http://www.imdb.com/title/tt0083275[/imdb]Сэмпл: https://yadi.sk/i/Yx1nVUEA3URHeZКачество видео: DVDRip
Формат видео: AVIВидео: XviD, 640x384 (1.66:1), 25 fps, 805 kbps, 0.131 bit/pixel
Аудио: 48 kHz, AC-3, 2 ch, 192 kbps

MediaInfo

ОбщееПолное имя                               : E:\Видео\Релизы\Вариола вера\Variola-vera (1982).aviФормат                                   : AVIФормат/Информация                        : Audio Video InterleaveРазмер файла                             : 750 МбайтПродолжительность                        : 1 ч. 44 м.Общий поток                              : 1007 Кбит/секВидеоИдентификатор                            : 0Формат                                   : MPEG-4 VisualПрофиль формата                          : Simple@L3Параметр BVOP формата                    : 1Параметр QPel формата                    : НетПараметр GMC формата                     : Без точки переходаПараметр матрицы формата                 : Default (H.263)Идентификатор кодека                     : XVIDИдентификатор кодека/Подсказка           : XviDПродолжительность                        : 1 ч. 44 м.Битрейт                                  : 805 Кбит/секШирина                                   : 640 пикселейВысота                                   : 384 пикселяСоотношение сторон                       : 5:3Частота кадров                           : 25,000 кадров/секЦветовое пространство                    : YUVСубдискретизация насыщенности            : 4:2:0Битовая глубина                          : 8 битТип развёртки                            : ПрогрессивнаяМетод сжатия                             : С потерямиБит/(Пиксели*Кадры)                      : 0.131Размер потока                            : 600 Мбайт (80%)Библиотека кодирования                   : XviD 1.1.0 Beta2 (UTC 2005-04-04)АудиоИдентификатор                            : 1Формат                                   : AC-3Формат/Информация                        : Audio Coding 3Расширение режима                        : CM (complete main)Параметр Endianness формата              : BigИдентификатор кодека                     : 2000Продолжительность                        : 1 ч. 44 м.Вид битрейта                             : ПостоянныйБитрейт                                  : 192 Кбит/секКаналы                                   : 2 каналаРасположение каналов                     : Front: L RЧастота                                  : 48,0 КГцЧастота кадров                           : 31,250 кадров/сек (1536 spf)Битовая глубина                          : 16 битМетод сжатия                             : С потерямиРазмер потока                            : 143 Мбайт (19%)Выравнивание                             : Соединение по промежуткамПродолжительность промежутка             : 40  мс. (1,00 видеокадр)Время предзагрузки промежутка            : 512  мс.

Скриншот c названием фильма

Скриншоты

Видеоряд и перевод взяты отсюда:

Для скачки контента: [Установить программу-клиент] и кликнуть по - СкачатьБезопасность: клиент проверен АВ Касперского

[asmlocator.ru].t523058.torrent 
Торрент: Зарегистрирован [ 2018-04-15 08:25 ] · C3AFBF5DDA957DC816A6D3544A63AFABE61A7B8B

Скачать .torrent

Скачать

15 KB

Статус: проверено
Скачан: 0 раз
Размер: 750 MB
terms.php
[Профиль] [ЛС]
Показать сообщения:    
Ответить на тему

Текущее время: 18-Сен 14:30

Часовой пояс: UTC ± 0



Вы не можете начинать темы
Вы не можете отвечать на сообщения
Вы не можете редактировать свои сообщения
Вы не можете удалять свои сообщения
Вы не можете голосовать в опросах
Вы не можете прикреплять файлы к сообщениям
Вы можете скачивать файлы