Variola vera (Натуральная оспа) / Variola vera (Горан Маркович/Goran Markovic) [1982, Югославия, Драма, хоррор, DVDRip] VO (Олег Воротилин)

Reply to topic
DL-List and Torrent activity
Size:  750 MB   |    Registered:  1 year   |    Completed:  1 time

Seeder not seen: 43 minutes

 
   
 
 
Author Message

star21 ®

Gender: Female

Longevity: 3 years 5 months

Posts: 552392

Location: Екатеринбург

Post 15-Apr-2018 08:25

[Quote]

Variola vera (Натуральная оспа) / Variola vera Страна: Югославия
Жанр: Драма, хоррор
Год выпуска: 1982
Продолжительность: 01:44:08Перевод: Одноголосый закадровый Олег Воротилин по субтитрам Antonio Salazar
Субтитры: нет
Оригинальная аудиодорожка: нетРежиссер: Горан Маркович/Goran MarkovicВ ролях: Раде Шербеджия, Эрланд Йозефсон, Душица Жегарац, Раде Маркович, Варя ДжукичОписание: Паломник, вернувшийся с Хаджа, привозит с собой смертельную болезнь - оспу (Variola vera) . Положение осложняется тем, что оспа долго время считалась побежденной болезнью - мало кто может ее диагностировать и никто не может ее вылечить. Власти принимают меры со значительным промедлением. Люди в закрытой на карантин больнице, оказавшись наедине с болезнью, показывают свое истинное лицо...Фильм основан на реальных событиях эпидемии оспы в Югославии в 1972 году.Доп. информация: [imdb]http://www.imdb.com/title/tt0083275[/imdb]Сэмпл: https://yadi.sk/i/Yx1nVUEA3URHeZКачество видео: DVDRip
Формат видео: AVIВидео: XviD, 640x384 (1.66:1), 25 fps, 805 kbps, 0.131 bit/pixel
Аудио: 48 kHz, AC-3, 2 ch, 192 kbps

MediaInfo

ОбщееПолное имя                               : E:\Видео\Релизы\Вариола вера\Variola-vera (1982).aviФормат                                   : AVIФормат/Информация                        : Audio Video InterleaveРазмер файла                             : 750 МбайтПродолжительность                        : 1 ч. 44 м.Общий поток                              : 1007 Кбит/секВидеоИдентификатор                            : 0Формат                                   : MPEG-4 VisualПрофиль формата                          : Simple@L3Параметр BVOP формата                    : 1Параметр QPel формата                    : НетПараметр GMC формата                     : Без точки переходаПараметр матрицы формата                 : Default (H.263)Идентификатор кодека                     : XVIDИдентификатор кодека/Подсказка           : XviDПродолжительность                        : 1 ч. 44 м.Битрейт                                  : 805 Кбит/секШирина                                   : 640 пикселейВысота                                   : 384 пикселяСоотношение сторон                       : 5:3Частота кадров                           : 25,000 кадров/секЦветовое пространство                    : YUVСубдискретизация насыщенности            : 4:2:0Битовая глубина                          : 8 битТип развёртки                            : ПрогрессивнаяМетод сжатия                             : С потерямиБит/(Пиксели*Кадры)                      : 0.131Размер потока                            : 600 Мбайт (80%)Библиотека кодирования                   : XviD 1.1.0 Beta2 (UTC 2005-04-04)АудиоИдентификатор                            : 1Формат                                   : AC-3Формат/Информация                        : Audio Coding 3Расширение режима                        : CM (complete main)Параметр Endianness формата              : BigИдентификатор кодека                     : 2000Продолжительность                        : 1 ч. 44 м.Вид битрейта                             : ПостоянныйБитрейт                                  : 192 Кбит/секКаналы                                   : 2 каналаРасположение каналов                     : Front: L RЧастота                                  : 48,0 КГцЧастота кадров                           : 31,250 кадров/сек (1536 spf)Битовая глубина                          : 16 битМетод сжатия                             : С потерямиРазмер потока                            : 143 Мбайт (19%)Выравнивание                             : Соединение по промежуткамПродолжительность промежутка             : 40  мс. (1,00 видеокадр)Время предзагрузки промежутка            : 512  мс.

Скриншот c названием фильма

Скриншоты

Видеоряд и перевод взяты отсюда:

To download the content you need:
1. Download and install torrent client [for Windows] or for mobile system
2. Click on [Download]
Attention.
If the test YOU are NOT a ROBOT - does not work, then You are using an outdated browser.
Install the current browser and click on [Download]
Security: torrent client is allowed by Kaspersky.

[asmlocator.ru].t523058.torrent 
Torrent: Registered [ 2018-04-15 08:25 ] · C3AFBF5DDA957DC816A6D3544A63AFABE61A7B8B

Download .torrent

Download

15 KB

Status: checked
Completed: 1 times
Size: 750 MB
terms.php
[Profile] [PM]
Display posts:    
Reply to topic

Current time is: 20-Apr 09:18

All times are UTC ± 0



You cannot post new topics in this forum
You cannot reply to topics in this forum
You cannot edit your posts in this forum
You cannot delete your posts in this forum
You cannot vote in polls in this forum
You cannot attach files in this forum
You can download files in this forum