Краконош и призрак / Krakonoš a strašidlo (Зденек Винш / Zdeněk Vinš) [1980, Чехословакия, ГДР, мультфильм, сказка, TVRip] VO

Ответить на тему
Статистика раздачи
Размер:  222 MB   |    Зарегистрирован:  5 месяцев 3 дня   |    Скачан:  0 раз

Полного источника не было: Никогда

 
   
 
 
Автор Сообщение

star21 ®

Пол: Женский

Стаж: 2 года 10 месяцев

Сообщений: 553006

Откуда: Екатеринбург

Создавать темы 15-Апр-2018 02:05

[Цитировать]

Краконош и призрак / Krakonoš a strašidloСтрана: Чехословакия, ГДР
Жанр: мультфильм, сказка
Продолжительность: 00:14:10
Год выпуска: 1980
Перевод: любительский (одноголосый закадровый) progulkin
Русские субтитры: нетРежиссёр: Зденек Винш / Zdeněk VinšОписание: Сказка про Краконоша - доброго духа леса, помогающего хорошим людям и наказывающего плохих. На этот раз он разобрался с подозрительным призраком, который вдруг начал пугать людей в его краях...Доп. информация: Другие мультфильмы из этой серии:
Krakonoš a správce Markvart (1977) - http://rutracker.org/forum/viewtopic.php?t=5491026
Krakonoš a sklínkař Matěj (1977) - http://rutracker.org/forum/viewtopic.php?t=5494249
Krakonoš a ovčak (1982) - http://rutracker.org/forum/viewtopic.php?t=5500539
Krakonoš a škola (1983) - http://rutracker.org/forum/viewtopic.php?t=5548584Качество: TVRip
Формат: AVI
Видео: 1788 kbps, 672х512 (4:3), 25.000 fps, MPEG-4 Visual (XviD)
Аудио 1: rus, 192 kbps, 44.1 kHz, 2 channels, MPEG Audio (MP3)
Аудио 2: cze, 192 kbps, 44.1 kHz, 2 channels, MPEG Audio (MP3)
Субтитры: отсутствуют

Подробные технические данные

GeneralComplete name                            : Krakonos a strasidlo (1980).aviFormat                                   : AVIFormat/Info                              : Audio Video InterleaveFile size                                : 222 MiBDuration                                 : 14mn 10sOverall bit rate                         : 2 186 KbpsWriting application                      : VirtualDubMod 1.5.10.2 (build 2540/release)Writing library                          : VirtualDubMod build 2540/releaseVideoID                                       : 0Format                                   : MPEG-4 VisualFormat profile                           : Advanced Simple@L5Format settings, BVOP                    : 2Format settings, QPel                    : NoFormat settings, GMC                     : No warppointsFormat settings, Matrix                  : Default (H.263)Codec ID                                 : XVIDCodec ID/Hint                            : XviDDuration                                 : 14mn 10sBit rate                                 : 1 788 KbpsWidth                                    : 672 pixelsHeight                                   : 512 pixelsDisplay aspect ratio                     : 4:3Frame rate                               : 25.000 fpsColor space                              : YUVChroma subsampling                       : 4:2:0Bit depth                                : 8 bitsScan type                                : ProgressiveCompression mode                         : LossyBits/(Pixel*Frame)                       : 0.208Stream size                              : 181 MiB (82%)Writing library                          : XviD 73Audio #1ID                                       : 1Format                                   : MPEG AudioFormat version                           : Version 1Format profile                           : Layer 3Mode                                     : Joint stereoMode extension                           : MS StereoCodec ID                                 : 55Codec ID/Hint                            : MP3Duration                                 : 14mn 10sBit rate mode                            : ConstantBit rate                                 : 192 KbpsChannel(s)                               : 2 channelsSampling rate                            : 44.1 KHzCompression mode                         : LossyStream size                              : 19.4 MiB (9%)Alignment                                : Aligned on interleavesInterleave, duration                     : 40 ms (1.00 video frame)Interleave, preload duration             : 522 msAudio #2ID                                       : 2Format                                   : MPEG AudioFormat version                           : Version 1Format profile                           : Layer 3Codec ID                                 : 55Codec ID/Hint                            : MP3Duration                                 : 14mn 10sBit rate mode                            : ConstantBit rate                                 : 192 KbpsChannel(s)                               : 2 channelsSampling rate                            : 44.1 KHzCompression mode                         : LossyStream size                              : 19.5 MiB (9%)Alignment                                : Split accross interleavesInterleave, duration                     : 40 ms (1.00 video frame)Interleave, preload duration             : 500 ms

Скриншоты

Для скачки контента: [Установить программу-клиент] и кликнуть по - СкачатьБезопасность: клиент проверен АВ Касперского

[asmlocator.ru].t523010.torrent 
Торрент: Зарегистрирован [ 2018-04-15 02:05 ] · BA064BE10C5CB2B5977427504E42387573D61C50

Скачать .torrent

Скачать

18 KB

Статус: проверено
Скачан: 0 раз
Размер: 222 MB
terms.php
[Профиль] [ЛС]
Показать сообщения:    
Ответить на тему

Текущее время: 18-Сен 14:30

Часовой пояс: UTC ± 0



Вы не можете начинать темы
Вы не можете отвечать на сообщения
Вы не можете редактировать свои сообщения
Вы не можете удалять свои сообщения
Вы не можете голосовать в опросах
Вы не можете прикреплять файлы к сообщениям
Вы можете скачивать файлы