[Александр Белов] На рыбалку. Инструменты для муховязания [2014, рыбалка, SATRip, RUS] (Видеоурок)

Ответить на тему
Статистика раздачи
Размер:  338 MB   |    Зарегистрирован:  5 месяцев 3 дня   |    Скачан:  0 раз

Полного источника не было: Никогда

 
   
 
 
Автор Сообщение

star21 ®

Пол: Женский

Стаж: 2 года 10 месяцев

Сообщений: 553006

Откуда: Екатеринбург

Создавать темы 14-Апр-2018 19:45

[Цитировать]

На рыбалку. Инструменты для муховязания Автор: Александр Белов
Страна: Россия
Тематика: рыбалка
Тип раздаваемого материала: Видеоурок
Продолжительность: 00:24:22
Год выпуска: 2014
Язык: Русский
Перевод: Не требуетсяОписание: «Нет зверя или птицы, шерсть или перья которых не могли бы быть использованы для изготовления искусственных приманок. Имеется также множество разновидностей синтетических волокон, лент и пленок, которые приспособлены рыболовами для своих нужд или же производятся специально для нахлыстовиков. Каждый год появляется много новых синтетических материалов для мушек. И все это богатство идей, материалов и способов работы с ними буквально обрушивается на того, кто всерьез берется за освоение самостоятельного вязания мушек».Качество: SATRip
Формат: AVI
Видео кодек: XviD
Аудио кодек: MP3
Видео: MPEG4, XviD, 640x480 (4:3), 25.000 fps, 1 803 Kbps (0.235 bit/pixel)
Аудио: MP3, 48.0 KHz, 2 ch, 128 Kbps, CBR

MI

General
Complete name : C:\Users\User\Downloads\На рыбалку. Инструменты для муховязания.avi
Format : AVI
Format/Info : Audio Video Interleave
File size : 338 MiB
Duration : 24mn 21s
Overall bit rate : 1 941 KbpsVideo
ID : 0
Format : MPEG-4 Visual
Format profile : Advanced Simple@L5
Format settings, BVOP : 2
Format settings, QPel : No
Format settings, GMC : No warppoints
Format settings, Matrix : Default (H.263)
Codec ID : XVID
Codec ID/Hint : XviD
Duration : 24mn 21s
Bit rate : 1 803 Kbps
Width : 640 pixels
Height : 480 pixels
Display aspect ratio : 4:3
Frame rate : 25.000 fps
Color space : YUV
Chroma subsampling : 4:2:0
Bit depth : 8 bits
Scan type : Progressive
Compression mode : Lossy
Bits/(Pixel*Frame) : 0.235
Stream size : 314 MiB (93%)
Writing library : XviD 64Audio
ID : 1
Format : MPEG Audio
Format version : Version 1
Format profile : Layer 3
Codec ID : 55
Codec ID/Hint : MP3
Duration : 24mn 21s
Bit rate mode : Constant
Bit rate : 128 Kbps
Channel(s) : 2 channels
Sampling rate : 48.0 KHz
Compression mode : Lossy
Delay relative to video : 24ms
Stream size : 22.3 MiB (7%)
Alignment : Aligned on interleaves
Interleave, duration : 40 ms (1.00 video frame)
Interleave, preload duration : 504 ms

Скриншоты

Для скачки контента: [Установить программу-клиент] и кликнуть по - СкачатьБезопасность: клиент проверен АВ Касперского

[asmlocator.ru].t522883.torrent 
Торрент: Зарегистрирован [ 2018-04-14 19:45 ] · 7FEC6EC3012017CE99F2F573E56B8B04A7B06B3D

Скачать .torrent

Скачать

14 KB

Статус: проверено
Скачан: 0 раз
Размер: 338 MB
terms.php
[Профиль] [ЛС]
Показать сообщения:    
Ответить на тему

Текущее время: 18-Сен 14:30

Часовой пояс: UTC ± 0



Вы не можете начинать темы
Вы не можете отвечать на сообщения
Вы не можете редактировать свои сообщения
Вы не можете удалять свои сообщения
Вы не можете голосовать в опросах
Вы не можете прикреплять файлы к сообщениям
Вы можете скачивать файлы