Месть электромобиля / Revenge of the Electric Car (Крис Пэйн) [2011, Док. фильм, SATRip]

Reply to topic
DL-List and Torrent activity
Size:  454 MB   |    Registered:  1 year   |    Completed:  0 times

Seeder not seen: Never

 
   
 
 
Author Message

star21 ®

Gender: Female

Longevity: 3 years 5 months

Posts: 552392

Location: Екатеринбург

Post 11-Apr-2018 21:55

[Quote]

Месть электромобиля / Revenge of the Electric Car Год выпуска: 2011
Страна: США
Жанр: Док. фильм
Продолжительность: 00:52:44
Перевод: Субтитры
Русские субтитры: естьРежиссер: Крис ПэйнОписание: Режиссер Крис Пэйн / Chris Paine, США, 2011Крис Пэйн продолжает тему, начатую им в 2006 году знаменитой лентой "Кто убил электромобиль"-http://rutracker.org/forum/viewtopic.php?t=173224. Главные герои фильма - это молодой предприниматель Элон Маск и его компания "Тесла Моторс". Закадровый текст читает Тим РоббинсSATRip от : ТвидДоп. информация: Любезно предоставлено клубом Fenix Сэмпл: http://multi-up.com/852077качество: SATRip
формат: AVI
видеокодек: XviD
аудиокодек: MP3
Видео: XviD, 1070 kb/s, 640x480, 25 fps, 0.139 bits/pixel
Аудио: 0x0055(MP3) ID'd as MPEG-1 Layer 3, 128 kb/s (2/ch, stereo) CBR, 48000 Hz - Английский

MediaInfo

Общее
Полное имя : D:\FILMS\Mest' jelektromobilja.Твид.fenixclub.avi
Формат : AVI
Формат/Информация : Audio Video Interleave
Размер файла : 454 Мбайт
Продолжительность : 52 м.
Общий поток : 1204 Кбит/сек
Программа кодирования : VirtualDubMod 1.5.10.2 (build 2540/release)
Библиотека кодирования : VirtualDubMod build 2540/releaseВидео
Идентификатор : 0
Формат : MPEG-4 Visual
Профиль формата : Advanced Simple@L5
Параметр BVOP формата : 2
Параметр QPel формата : Нет
Параметр GMC формата : Без точки перехода
Параметр матрицы формата : Default (H.263)
Режим смешивания : Сжатый битовый поток
Идентификатор кодека : XVID
Идентификатор кодека/Подсказка : XviD
Продолжительность : 52 м.
Битрейт : 1067 Кбит/сек
Ширина : 640 пикселей
Высота : 480 пикселей
Соотношение сторон : 4:3
Частота кадров : 25,000 кадров/сек
Цветовое пространство : YUV
Субдискретизация насыщенности : 4:2:0
Битовая глубина : 8 бит
Тип развёртки : Прогрессивная
Метод сжатия : С потерями
Бит/(Пиксели*Кадры) : 0.139
Размер потока : 402 Мбайт (89%)
Библиотека кодирования : XviD 1.1.2 (UTC 2006-11-01)Аудио
Идентификатор : 1
Формат : MPEG Audio
Версия формата : Version 1
Профиль формата : Layer 3
Режим : Joint stereo
Расширение режима : MS Stereo
Идентификатор кодека : 55
Идентификатор кодека/Подсказка : MP3
Продолжительность : 52 м.
Вид битрейта : Постоянный
Битрейт : 128 Кбит/сек
Каналы : 2 канала
Частота : 48,0 КГц
Метод сжатия : С потерями
Размер потока : 48,3 Мбайт (11%)
Выравнивание : Разделение по промежуткам
Продолжительность промежутка : 40 мс. (1,00 видеокадр)
Время предзагрузки промежутка : 500 мс.

Скриншоты


To download the content you need:
1. Download and install torrent client [for Windows] or for mobile system
2. Click on [Download]
Attention.
If the test YOU are NOT a ROBOT - does not work, then You are using an outdated browser.
Install the current browser and click on [Download]
Security: torrent client is allowed by Kaspersky.

[asmlocator.ru].t522071.torrent 
Torrent: Registered [ 2018-04-11 21:55 ] · 7AEF968BC0BD29E0DA0752192275E863E14FE0CF

Download .torrent

Download

18 KB

Status: checked
Completed: 0 times
Size: 454 MB
terms.php
[Profile] [PM]
Display posts:    
Reply to topic

Current time is: 20-Apr 09:14

All times are UTC ± 0



You cannot post new topics in this forum
You cannot reply to topics in this forum
You cannot edit your posts in this forum
You cannot delete your posts in this forum
You cannot vote in polls in this forum
You cannot attach files in this forum
You can download files in this forum