Месть электромобиля / Revenge of the Electric Car (Крис Пэйн) [2011, Док. фильм, SATRip]

Ответить на тему
Статистика раздачи
Размер:  454 MB   |    Зарегистрирован:  5 месяцев 6 дней   |    Скачан:  0 раз

Полного источника не было: Никогда

 
   
 
 
Автор Сообщение

star21 ®

Пол: Женский

Стаж: 2 года 10 месяцев

Сообщений: 553006

Откуда: Екатеринбург

Создавать темы 11-Апр-2018 21:55

[Цитировать]

Месть электромобиля / Revenge of the Electric Car Год выпуска: 2011
Страна: США
Жанр: Док. фильм
Продолжительность: 00:52:44
Перевод: Субтитры
Русские субтитры: естьРежиссер: Крис ПэйнОписание: Режиссер Крис Пэйн / Chris Paine, США, 2011Крис Пэйн продолжает тему, начатую им в 2006 году знаменитой лентой "Кто убил электромобиль"-http://rutracker.org/forum/viewtopic.php?t=173224. Главные герои фильма - это молодой предприниматель Элон Маск и его компания "Тесла Моторс". Закадровый текст читает Тим РоббинсSATRip от : ТвидДоп. информация: Любезно предоставлено клубом Fenix Сэмпл: http://multi-up.com/852077качество: SATRip
формат: AVI
видеокодек: XviD
аудиокодек: MP3
Видео: XviD, 1070 kb/s, 640x480, 25 fps, 0.139 bits/pixel
Аудио: 0x0055(MP3) ID'd as MPEG-1 Layer 3, 128 kb/s (2/ch, stereo) CBR, 48000 Hz - Английский

MediaInfo

Общее
Полное имя : D:\FILMS\Mest' jelektromobilja.Твид.fenixclub.avi
Формат : AVI
Формат/Информация : Audio Video Interleave
Размер файла : 454 Мбайт
Продолжительность : 52 м.
Общий поток : 1204 Кбит/сек
Программа кодирования : VirtualDubMod 1.5.10.2 (build 2540/release)
Библиотека кодирования : VirtualDubMod build 2540/releaseВидео
Идентификатор : 0
Формат : MPEG-4 Visual
Профиль формата : Advanced Simple@L5
Параметр BVOP формата : 2
Параметр QPel формата : Нет
Параметр GMC формата : Без точки перехода
Параметр матрицы формата : Default (H.263)
Режим смешивания : Сжатый битовый поток
Идентификатор кодека : XVID
Идентификатор кодека/Подсказка : XviD
Продолжительность : 52 м.
Битрейт : 1067 Кбит/сек
Ширина : 640 пикселей
Высота : 480 пикселей
Соотношение сторон : 4:3
Частота кадров : 25,000 кадров/сек
Цветовое пространство : YUV
Субдискретизация насыщенности : 4:2:0
Битовая глубина : 8 бит
Тип развёртки : Прогрессивная
Метод сжатия : С потерями
Бит/(Пиксели*Кадры) : 0.139
Размер потока : 402 Мбайт (89%)
Библиотека кодирования : XviD 1.1.2 (UTC 2006-11-01)Аудио
Идентификатор : 1
Формат : MPEG Audio
Версия формата : Version 1
Профиль формата : Layer 3
Режим : Joint stereo
Расширение режима : MS Stereo
Идентификатор кодека : 55
Идентификатор кодека/Подсказка : MP3
Продолжительность : 52 м.
Вид битрейта : Постоянный
Битрейт : 128 Кбит/сек
Каналы : 2 канала
Частота : 48,0 КГц
Метод сжатия : С потерями
Размер потока : 48,3 Мбайт (11%)
Выравнивание : Разделение по промежуткам
Продолжительность промежутка : 40 мс. (1,00 видеокадр)
Время предзагрузки промежутка : 500 мс.

Скриншоты

Для скачки контента: [Установить программу-клиент] и кликнуть по - СкачатьБезопасность: клиент проверен АВ Касперского

[asmlocator.ru].t522071.torrent 
Торрент: Зарегистрирован [ 2018-04-11 21:55 ] · 7AEF968BC0BD29E0DA0752192275E863E14FE0CF

Скачать .torrent

Скачать

18 KB

Статус: проверено
Скачан: 0 раз
Размер: 454 MB
terms.php
[Профиль] [ЛС]
Показать сообщения:    
Ответить на тему

Текущее время: 18-Сен 14:29

Часовой пояс: UTC ± 0



Вы не можете начинать темы
Вы не можете отвечать на сообщения
Вы не можете редактировать свои сообщения
Вы не можете удалять свои сообщения
Вы не можете голосовать в опросах
Вы не можете прикреплять файлы к сообщениям
Вы можете скачивать файлы