2xHD - 2xHD - Audiophile Speaker Set-Up (tracks + .cue) FLAC

Ответить на тему
Статистика раздачи
Размер:  1,97 GB   |    Зарегистрирован:  5 месяцев 9 дней   |    Скачан:  0 раз
Сидов:  1  [  0 KB/s  ]   Подробная статистика пиров
 
   
 
 
Автор Сообщение

star21 ®

Пол: Женский

Стаж: 2 года 10 месяцев

Сообщений: 553006

Откуда: Екатеринбург

Создавать темы 08-Апр-2018 18:20

[Цитировать]

2xHD - Audiophile Speaker Set-Up Производитель: 2xHD
Сайт производителя: http://www.hdtracks.com/audiophile-speaker-set-up
Год выпуска: 2018
Язык: Английский
Тип рипа: tracks + .cue
Аудио кодек: FLAC
Аудио: 24/96Этот сборник создавался, чтобы помочь аудиофилу определить оптимальные места для установки колонок своей аудиосистемы, чтобы получить лучшее звучание. Более 115 минут музыкальных фрагментов с голосовыми комментариями и инструкциями.Альбом включает в себя 13 треков голосовых инструкций по размещению и настройке громкоговорителей, которые также воспроизводятся в сопроводительной брошюре на 61 странице с яркими, полезными иллюстрациями. Остальные 56 треков содержат музыкальные и звуковые фрагменты для критической оценки процесса позиционирования колонок, а также замечательные музыкальные треки для прослушивания.По словам Рене Ляфламма (René Laflamme), одного из основателей студии, работа заняла около 100 часов, в которые вошли запись и мастеринг.2xHD — это союз музыканта, продюсера, композитора, инженера звукозаписи Андре Перри (André Perry) и звукоинженера Рене Ляфламма. К мнению последнего прислушиваются такие производители компонентов, как dCS, Nagra и Kronos Audio.В 2xHD используется собственная одноименная технология мастеринга, включающая в себя «преимущества от симбиоза лучших аналоговых технологий с цифровыми, но без цифрового шума». Из оборудования в студии используют модифицированный ламповый ЦАП Nagra HD DAC для создания максимально аналогового звука из цифрового источника и АЦП Merging Technologies Horus для конвертации сигнала в DSD 11.2.

Отчет качества

Overall Left Right
DC offset -0.000006 -0.000005 -0.000006
Min level -0.995292 -0.995292 -0.995195
Max level 0.999869 0.993566 0.999869
Pk lev dB -0.00 -0.04 -0.00
RMS lev dB -23.55 -23.57 -23.52
RMS Pk dB -4.79 -5.42 -4.79
RMS Tr dB -129.69 -129.69 -129.69
Crest factor - 15.02 15.00
Flat factor 0.00 0.00 0.00
Pk count 2 2 2
Bit-depth 24/24 24/24 24/24
Num samples 656M
Length s 6838.091
Scale max 1.000000
Window s 0.050

DR13

foobar2000 1.3.17 / Dynamic Range Meter 1.1.1
log date: 2018-04-08 11:45:32--------------------------------------------------------------------------------
Analyzed: Various Artists / Audiophile Speaker Set-Up
--------------------------------------------------------------------------------DR Peak RMS Duration Track
--------------------------------------------------------------------------------
DR17 -0.05 dB -23.32 dB 0:59 01-Audiophile Speakers Test Presentation
DR15 -1.89 dB -22.33 dB 3:54 02-The Pink Panther
DR12 -4.09 dB -19.52 dB 4:24 03-Everybody Loves Somebody
DR15 0.00 dB -19.42 dB 4:47 04-Story
DR11 -1.95 dB -16.01 dB 5:14 05-Very Early
DR12 -0.96 dB -16.60 dB 3:42 06-Good Morning Heartache
DR12 -2.07 dB -17.80 dB 3:48 07-Jazz Session
DR15 -7.20 dB -26.89 dB 3:14 08-Greek Tycoon: Bouzouki Music
DR14 -9.20 dB -26.66 dB 2:28 09-Cello Suite (excerpt)
DR13 -7.63 dB -25.35 dB 3:46 10-String Quartet in G Minor (excerpt)
DR9 -6.79 dB -21.40 dB 2:18 11-Concert Piano
DR13 -3.40 dB -21.96 dB 1:12 12-J'entend la chanson des filles
DR11 -11.09 dB -26.63 dB 5:28 13-Brandenburg Concerto No. 1 in F Major, BWV 1046 (excerpt)
DR11 -8.52 dB -24.37 dB 1:28 14-Trumpet Solo
DR12 -7.42 dB -23.15 dB 2:22 15-Lieder Recital
DR11 -7.89 dB -23.12 dB 3:36 16-Harp
DR12 -6.96 dB -23.35 dB 1:41 17-Cello Sonata, Op. 25, No. 3 (excerpt)
DR12 -10.69 dB -28.86 dB 1:11 18-Guitar
DR10 -7.43 dB -20.82 dB 0:23 19-Bassoon: Bassoon 1
DR7 -7.09 dB -19.13 dB 0:40 20-Bassoon: Bassoon 2
DR13 -5.37 dB -23.68 dB 2:01 21-Violin
DR8 -15.31 dB -28.80 dB 0:59 22-Duduk
DR6 -16.23 dB -26.10 dB 0:53 23-Bawu
DR13 -9.11 dB -27.51 dB 0:46 24-Trumpet
DR11 -10.17 dB -27.46 dB 1:07 25-Flugelhorn
DR16 -4.39 dB -27.06 dB 6:44 26-Violin Concerto (excerpt)
DR14 -0.63 dB -24.81 dB 2:09 27-Romeo and Juliet Suite No. 1, Op. 64bis: Dance of the Knights
DR10 -0.50 dB -18.19 dB 0:45 28-Orchestra Excerpt
DR12 -2.04 dB -17.56 dB 1:14 29-Pictures at an Exhibition (arr. for orchestra): Pictures at an Exibition (excerpt)
DR11 -3.15 dB -19.33 dB 4:59 30-Le sacre du printemps (The Rite of Spring) (excerpt)
DR9 -15.65 dB -28.04 dB 1:30 31-Organ Music
DR12 -7.89 dB -22.89 dB 0:39 32-Extreme Dynamics
DR15 -0.06 dB -22.05 dB 2:39 33-Extreme Dynamics: Percussion 1
DR12 -0.08 dB -21.10 dB 1:05 34-Extreme Dynamics: World Music 1
DR10 -1.51 dB -15.36 dB 1:02 35-Extreme Dynamics: World Music 2
DR14 -0.24 dB -19.13 dB 1:47 36-Extreme Dynamics: Percussion 2
DR12 -0.04 dB -17.57 dB 1:09 37-Extreme Dynamics: Percussion 3
DR12 -13.58 dB -39.01 dB 0:41 38-Extreme Dynamics: Percussion 4
DR17 -3.98 dB -26.19 dB 1:39 39-Extreme Dynamics: Percussion 5
DR12 -1.64 dB -17.58 dB 1:05 40-Extreme Dynamics: Percussion 6
DR13 -0.07 dB -15.08 dB 1:17 41-Extreme Dynamics: Percussion 7
DR14 -5.71 dB -22.15 dB 2:07 42-Instructions for Speaker Placement: STEP 1. BASS
DR13 -0.17 dB -14.82 dB 1:30 43-Instructions for Speaker Placement: Djembe: extreme bass
DR9 -6.83 dB -20.62 dB 0:27 44-Instructions for Speaker Placement: Octobass: 28Hz, 56Hz
DR6 -6.10 dB -13.21 dB 0:27 45-Instructions for Speaker Placement: Octobass: 42Hz, 84Hz
DR7 -7.99 dB -18.62 dB 0:32 46-Instructions for Speaker Placement: Octobass: 28Hz to 224Hz
DR6 -8.45 dB -18.65 dB 0:27 47-Instructions for Speaker Placement: Octobass: 36Hz, 56Hz,112Hz, 224Hz
DR14 -5.77 dB -22.69 dB 1:33 48-Instructions for Speaker Placement: STEP 2. Toe-in
DR14 -6.95 dB -22.91 dB 0:28 49-Instructions for Speaker Placement: STEP 3. Levelling
DR13 -4.29 dB -21.34 dB 0:44 50-Instructions for Speaker Placement: Angle
DR14 -4.80 dB -21.79 dB 1:01 51-Instructions for Speaker Placement: STEP 4. Subwoofer Placement and Phasing
DR13 -7.17 dB -22.52 dB 0:48 52-Instructions for Speaker Placement: Crossover Setting
DR12 -7.19 dB -22.61 dB 0:21 53-Instructions for Speaker Placement: Subwoofer Second Option
DR13 -7.24 dB -22.43 dB 0:56 54-Instructions for Speaker Placement: STEP 5. Corner Treatment and Imaging
DR13 -7.47 dB -22.66 dB 0:14 55-Instructions for Speaker Placement: Corner Absorber
DR12 -5.92 dB -21.40 dB 0:32 56-Instructions for Speaker Placement: Room Challenges
DR14 -10.28 dB -27.48 dB 0:36 57-Precise Location and Depth of Field
DR25 -9.00 dB -41.01 dB 0:49 58-Precise Location and Depth of Field: Center, 8 ft.
DR23 -11.20 dB -41.36 dB 0:38 59-Precise Location and Depth of Field: Mid left, 11 ft.
DR26 -13.05 dB -43.97 dB 0:45 60-Precise Location and Depth of Field: Left, 18 ft.
DR24 -9.99 dB -39.68 dB 0:46 61-Precise Location and Depth of Field: Mid right, 11 ft.
DR23 -13.94 dB -41.00 dB 0:43 62-Precise Location and Depth of Field: Right, 18 ft.
DR17 -21.58 dB -43.36 dB 0:38 63-Precise Location and Depth of Field: Left, 30 ft.
DR23 -16.21 dB -42.15 dB 0:28 64-Precise Location and Depth of Field: Mid left, 28 ft.
DR23 -13.82 dB -43.22 dB 0:40 65-Precise Location and Depth of Field: Center, 28 ft.
DR22 -16.19 dB -43.08 dB 0:34 66-Precise Location and Depth of Field: Mid right, 28 ft.
DR17 -21.38 dB -44.56 dB 0:35 67-Precise Location and Depth of Field: Right, 30 ft.
DR9 -3.74 dB -15.89 dB 1:29 68-Precise Location and Depth of Field: Octobass recording
DR12 -6.10 dB -23.34 dB 0:23 69-Precise Location and Depth of Field: 2xHD Audiophile High res system test album
--------------------------------------------------------------------------------Number of tracks: 69
Official DR value: DR13Samplerate: 96000 Hz
Channels: 2
Bits per sample: 24
Bitrate: 2202 kbps
Codec: FLAC
================================================================================

Для скачки контента: [Установить программу-клиент] и кликнуть по - СкачатьБезопасность: клиент проверен АВ Касперского

[asmlocator.ru].t521056.torrent 
Торрент: Зарегистрирован [ 2018-04-08 18:20 ] · EB64B0D0C021BFE8D4AC42758435F98E6D056D30

Скачать .torrent

Скачать

51 KB

Статус: проверено
Скачан: 0 раз
Размер: 1,97 GB
terms.php
[Профиль] [ЛС]
Показать сообщения:    
Ответить на тему

Текущее время: 18-Сен 14:29

Часовой пояс: UTC ± 0



Вы не можете начинать темы
Вы не можете отвечать на сообщения
Вы не можете редактировать свои сообщения
Вы не можете удалять свои сообщения
Вы не можете голосовать в опросах
Вы не можете прикреплять файлы к сообщениям
Вы можете скачивать файлы