[TR24][OF] Starsailor - All This Life - 2017 (Rock, Popm Brit Pop)

Ответить на тему
Статистика раздачи
Размер:  516 MB   |    Зарегистрирован:  5 дней   |    Скачан:  0 раз

Полного источника не было: Никогда

Автор Сообщение

star21 ®

Пол: Не указан

Стаж: 2 года 4 месяца

Сообщений: 353985

Создавать темы 13-Мар-2018 19:30


Starsailor / All This Life Формат записи/Источник записи: [TR24][OF]
Наличие водяных знаков: Нет
Год издания/переиздания диска: 2017
Жанр: Rock, Popm Brit Pop
Издатель (лейбл): Cooking Vinyl
Продолжительность: 00:45:16
Наличие сканов в содержимом раздачи: Front
Источник (релизер): 7digitalКонтейнер: FLAC (*.flac)
Тип рипа: tracksРазрядность: 24/44,1
Формат: PCM
Количество каналов: 2.0Треклист:
01. Listen to Your Heart
02. All This Life
03. Take a Little Time
04. Caught in the Middle
05. Sunday Best
06. Blood
07. Best of Me
08. Break the Cycle
09. Fallout
10. Fia (Fuck It All)
11. No One Else

Лог проверки качества

foobar2000 1.1.10 / Dynamic Range Meter 1.1.1log date: 2018-03-13 20:08:56--------------------------------------------------------------------------------Analyzed: Starsailor / All This Life--------------------------------------------------------------------------------DR         Peak         RMS     Duration Track--------------------------------------------------------------------------------DR5       -0.78 dB    -8.11 dB      3:51 ?-Listen to Your HeartDR6       -0.78 dB    -8.68 dB      2:55 ?-All This LifeDR7       -0.78 dB    -9.81 dB      3:26 ?-Take a Little TimeDR8       -0.78 dB   -11.37 dB      3:50 ?-Caught in the MiddleDR7       -0.78 dB   -10.91 dB      5:24 ?-Sunday BestDR7       -0.78 dB   -10.54 dB      4:51 ?-BloodDR7       -0.78 dB    -9.18 dB      3:37 ?-Best of MeDR7       -0.78 dB   -10.14 dB      3:18 ?-Break the CycleDR6       -0.78 dB    -9.52 dB      5:52 ?-FalloutDR9       -0.78 dB   -10.69 dB      6:04 ?-Fia (Fuck It All)DR12      -1.52 dB   -17.49 dB      2:13 ?-No One Else--------------------------------------------------------------------------------Number of tracks:  11Official DR value: DR8Samplerate:        44100 HzChannels:          2Bits per sample:   24Bitrate:           1351 kbpsCodec:             FLAC================================================================================


Vocals and Guitars: James Walsh
Keyboards: Barry Westhead
Bass: James 'Stel' Stelfox
Drums: Ben Byrne

Об исполнителе (группе)

Starsailor burst onto the scene in 2001 when their single Fever earned them the title of "Britain's best new band". The band was formed at Wigan and Leigh Music College by music students James Walsh (vocals/guitar), James Stelfox (bass), and Ben Byrne (drums). Later saw the arrival of keyboardist Barry Westhead, who cemented their sound. In April 2000, after seeing their first London show (at the Heavenly Social) the NME wrote: "One live encounter was enough to convince many sceptics that here was a band who were genuinely special, blessed with a singer whose voice thrummed like an emotional telegraph wire, that swerved the pitfalls of indie melancholia and were clearly in love with rock 'n' roll and all its possibilities." Their debut album Love Is Here featuring the Top 10 single Alcoholic, reached Number Two in the UK Album Charts in October 2001, after receiving great critical acclaim and went on to sell over half a million copies in the UK alone.
Раздаю до первых 5-ти скачавших, на раздачи не возвращаюсь...

Для скачки контента: [Установить программу-клиент] и кликнуть по - Скачать

Торрент: Зарегистрирован [ 2018-03-13 19:30 ] · E67DF63644844A831F5014C6535547E2DF03E90B

Скачать .torrent


11 KB

Статус: проверено
Скачан: 0 раз
Размер: 516 MB
[Профиль] [ЛС]
Показать сообщения:    
Ответить на тему

Текущее время: 19-Мар 12:54

Часовой пояс: UTC ± 0

Вы не можете начинать темы
Вы не можете отвечать на сообщения
Вы не можете редактировать свои сообщения
Вы не можете удалять свои сообщения
Вы не можете голосовать в опросах
Вы не можете прикреплять файлы к сообщениям
Вы можете скачивать файлы