[TR24][OF] Claude Nougaro - Nougaro 77 (Olympia 1977) - 1977/2014 (French Pop)

Ответить на тему
Статистика раздачи
Размер:  1,64 GB   |    Зарегистрирован:  6 месяцев 5 дней   |    Скачан:  0 раз

Полного источника не было: Никогда

 
   
 
 
Автор Сообщение

star21 ®

Пол: Женский

Стаж: 2 года 10 месяцев

Сообщений: 552985

Откуда: Екатеринбург

Создавать темы 13-Мар-2018 19:30

[Цитировать]

Claude Nougaro - Nougaro 77 (Olympia 1977) Формат записи/Источник записи: [TR24][OF]
Наличие водяных знаков: Нет
Год издания/переиздания диска: 1977/2014
Жанр: French Pop
Издатель (лейбл): Mercury
Продолжительность: 79:56
Наличие сканов в содержимом раздачи: Только обложка альбомаТреклист:
01. Comme Une Piaf (3:43)
02. Ile De Ré (4:56)
03. Quasimodo (3:21)
04. Jalousie (6:44)
05. Ma Femme (3:10)
06. Une Petite Fille (2:07)
07. Plume D'Ange (17:11)
08. Victor (17:46)
09. Pablo (4:16)
10. Jésus (3:30)
11. Le K Du Q (4:31)
12. Les Noces De Sang (3:55)
13. Brésilien (4:45)
 

Об исполнителе

Souvent considéré comme le chanteur qui a su fusionner les traditions de la chanson française avec l'énergie et la verve du jazz américain, Claude Nougaro est né à Toulouse le 9 septembre 1929. Fils d'un chanteur d'opéra et d’un professeur de piano, il est élevé en grande partie par ses grands-parents, dévorant la musique non seulement classique mais aussi les chansons de Charles Trenet et d’édith Piaf, ainsi que le swing américain de Louis Armstrong et Glenn Miller. Nougaro fait ses premiers enregistrements en 1958 et continue à faire de la musique jusque dans les années 1970. Après avoir connu pendant des années une santé défaillante, Nougaro est décédé le 4 mars 2004 à l'âge de 74 ans.
Контейнер: FLAC (*.flac)
Тип рипа: tracksРазрядность: 24/96
Формат: PCM
Количество каналов: 2.0

Лог проверки качества

foobar2000 1.3.9 / Dynamic Range Meter 1.1.1log date: 2018-03-13 17:58:32--------------------------------------------------------------------------------Analyzed: Claude Nougaro / Nougaro 77 (Olympia 1977)--------------------------------------------------------------------------------DR         Peak         RMS     Duration Track--------------------------------------------------------------------------------DR11       0.00 dB   -12.18 dB      3:43 01-Comme Une PiafDR13       0.00 dB   -15.42 dB      4:56 02-Ile De RéDR11       0.00 dB   -14.75 dB      3:21 03-QuasimodoDR12       0.00 dB   -14.60 dB      6:44 04-JalousieDR11       0.00 dB   -13.70 dB      3:10 05-Ma FemmeDR11       0.00 dB   -13.64 dB      2:07 06-Une Petite FilleDR10       0.00 dB   -13.64 dB     17:11 07-Plume D'AngeDR10       0.00 dB   -13.54 dB     17:46 08-VictorDR11       0.00 dB   -14.45 dB      4:16 09-PabloDR18       0.00 dB   -22.18 dB      3:30 10-JésusDR12       0.00 dB   -13.96 dB      4:31 11-Le K Du QDR10       0.00 dB   -12.76 dB      3:55 12-Les Noces De SangDR10       0.00 dB   -12.11 dB      4:45 13-Brésilien--------------------------------------------------------------------------------Number of tracks:  13Official DR value: DR12Samplerate:        96000 HzChannels:          2Bits per sample:   24Bitrate:           3161 kbpsCodec:             FLAC================================================================================
Источник: i-classical.com

Для скачки контента: [Установить программу-клиент] и кликнуть по - СкачатьБезопасность: клиент проверен АВ Касперского

[asmlocator.ru].t512270.torrent 
Торрент: Зарегистрирован [ 2018-03-13 19:30 ] · 79CB04F2B97DC59A0C174CB0391E2BB8FBFA6EE4

Скачать .torrent

Скачать

18 KB

Статус: проверено
Скачан: 0 раз
Размер: 1,64 GB
terms.php
[Профиль] [ЛС]
Показать сообщения:    
Ответить на тему

Текущее время: 19-Сен 15:44

Часовой пояс: UTC ± 0



Вы не можете начинать темы
Вы не можете отвечать на сообщения
Вы не можете редактировать свои сообщения
Вы не можете удалять свои сообщения
Вы не можете голосовать в опросах
Вы не можете прикреплять файлы к сообщениям
Вы можете скачивать файлы