(Classical) Schumann - Kinderszenen / Liszt - Ballade No.2 / Janacek - Sonata 1. X. 1905 ‘From the Streets’ / Brahms - Drei Intermezzi, Op.117 -- Haochen Zhang - 2017, FLAC (image+.cue) lossless

Ответить на тему
Статистика раздачи
Размер:  200 MB   |    Зарегистрирован:  9 месяцев 5 дней   |    Скачан:  0 раз

Полного источника не было: Никогда

 
   
 
 
Автор Сообщение

star21 ®

Пол: Женский

Стаж: 3 года 1 месяц

Сообщений: 552863

Откуда: Екатеринбург

Создавать темы 13-Мар-2018 19:30

[Цитировать]

Haochen Zhang Plays Schumann, Liszt, Janáček, Brahms Жанр: Classical
Страна-производитель диска: Sweden
Год издания диска: 2017
Издатель (лейбл): BIS
Номер по каталогу: BIS-SACD-2238
Дата записи: 2016
Аудиокодек: FLAC
Тип рипа: image+.cue
Битрейт аудио: lossless
Продолжительность: 65:46
Источник: собственный рип
Наличие сканов в содержимом раздачи: даТреклист:Robert Schumann
[1]-[13] Kinderszenen, Op. 15Franz Liszt
[14] Ballade No.2 in B minor, S. 171Leoš Janáček
[15]-[16] Sonata 1. X. 1905 ‘From the Streets’Johannes Brahms
[17]-[19] Drei Intermezzi, Op. 117Исполнители:
Haochen Zhang piano

Лог создания рипа

Exact Audio Copy V1.1 from 23. June 2015EAC extraction logfile from 13. June 2017, 21:19Haochen Zhang / Haochen Zhang plays Schumann, Liszt, Janacek, BrahmsUsed drive  : PLDS    DVD-RW DU8A6SH   Adapter: 1  ID: 0Read mode               : SecureUtilize accurate stream : YesDefeat audio cache      : YesMake use of C2 pointers : NoRead offset correction                      : 6Overread into Lead-In and Lead-Out          : NoFill up missing offset samples with silence : YesDelete leading and trailing silent blocks   : NoNull samples used in CRC calculations       : YesUsed interface                              : Native Win32 interface for Win NT & 2000Used output format              : User Defined EncoderSelected bitrate                : 128 kBit/sQuality                         : HighAdd ID3 tag                     : NoCommand line compressor         : C:\Program Files (x86)\Exact Audio Copy\Flac\flac.exeAdditional command line options : -V -8 -T "Date=%year%" -T "Genre=%genre%" %source%TOC of the extracted CD     Track |   Start  |  Length  | Start sector | End sector    ---------------------------------------------------------        1  |  0:00.00 |  1:34.10 |         0    |     7059        2  |  1:34.10 |  1:13.11 |      7060    |    12545        3  |  2:47.21 |  0:32.11 |     12546    |    14956        4  |  3:19.32 |  0:50.66 |     14957    |    18772        5  |  4:10.23 |  1:15.30 |     18773    |    24427        6  |  5:25.53 |  0:53.62 |     24428    |    28464        7  |  6:19.40 |  2:22.70 |     28465    |    39184        8  |  8:42.35 |  1:06.65 |     39185    |    44199        9  |  9:49.25 |  0:39.25 |     44200    |    47149       10  | 10:28.50 |  1:37.30 |     47150    |    54454       11  | 12:06.05 |  1:52.38 |     54455    |    62892       12  | 13:58.43 |  2:21.14 |     62893    |    73481       13  | 16:19.57 |  2:35.50 |     73482    |    85156       14  | 18:55.32 | 14:08.30 |     85157    |   148786       15  | 33:03.62 |  5:40.43 |    148787    |   174329       16  | 38:44.30 |  8:30.10 |    174330    |   212589       17  | 47:14.40 |  6:03.65 |    212590    |   239879       18  | 53:18.30 |  4:35.55 |    239880    |   260559       19  | 57:54.10 |  7:51.65 |    260560    |   295949Range status and errorsSelected range     Filename C:\temp\BIS-SACD-2238 - Haochen Zhang Plays Schumann, Liszt, Janacek, Brahms\Haochen Zhang plays Schumann, Liszt, Janacek, Brahms.wav     Peak level 95.7 %     Extraction speed 4.2 X     Range quality 100.0 %     Test CRC 5B058841     Copy CRC 5B058841     Copy OKNo errors occurredAccurateRip summaryTrack  1  not present in databaseTrack  2  not present in databaseTrack  3  not present in databaseTrack  4  not present in databaseTrack  5  not present in databaseTrack  6  not present in databaseTrack  7  not present in databaseTrack  8  not present in databaseTrack  9  not present in databaseTrack 10  not present in databaseTrack 11  not present in databaseTrack 12  not present in databaseTrack 13  not present in databaseTrack 14  not present in databaseTrack 15  not present in databaseTrack 16  not present in databaseTrack 17  not present in databaseTrack 18  not present in databaseTrack 19  not present in databaseNone of the tracks are present in the AccurateRip databaseEnd of status report==== Log checksum 323774A1294ACD9F4E8D897C7092E2BDB0C5F1A2BF2F11090570F9B242B46C9A ====

Для скачки контента: [Установить программу-клиент] и кликнуть по - СкачатьБезопасность: клиент проверен АВ Касперского

[asmlocator.ru].t512260.torrent 
Торрент: Зарегистрирован [ 2018-03-13 19:30 ] · 443CBD98F64BC97E87FCF737818A45F512CEC876

Скачать .torrent

Скачать

33 KB

Статус: проверено
Скачан: 0 раз
Размер: 200 MB
terms.php
[Профиль] [ЛС]
Показать сообщения:    
Ответить на тему

Текущее время: 19-Дек 04:29

Часовой пояс: UTC ± 0



Вы не можете начинать темы
Вы не можете отвечать на сообщения
Вы не можете редактировать свои сообщения
Вы не можете удалять свои сообщения
Вы не можете голосовать в опросах
Вы не можете прикреплять файлы к сообщениям
Вы можете скачивать файлы