Василиса Прекрасная (Александр Роу) [1939, сказка, DVDRip]

Ответить на тему
Статистика раздачи
Размер:  1,09 GB   |    Зарегистрирован:  9 месяцев 5 дней   |    Скачан:  0 раз

Полного источника не было: 8 месяцев 10 дней

 
   
 
 
Автор Сообщение

star21 ®

Пол: Женский

Стаж: 3 года 1 месяц

Сообщений: 552863

Откуда: Екатеринбург

Создавать темы 13-Мар-2018 19:30

[Цитировать]

Василиса Прекрасная Жанр: сказка
Год выпуска: 1939
Продолжительность: 01:10:08
Режиссёр: Александр РоуВ ролях: Георгий Милляр, Сергей Столяров, Лев Потёмкин, Никита Кондратьев, Валентина Сорогожская, Ирина Зарубина, Лидия Сухаревская, Татьяна Барышева, М. Скавронская, Мария БарабановаОписание: По пьесе-сказке Г. Владычиной, написанной по мотивам русских народных сказок («Царевна-лягушка» и др.).
Задумал отец женить трёх своих сыновей. Вышли братья в чистое поле и пустили стрелы в разные стороны. Стрела старшего сына упала на боярский двор, к боярской дочери, стрела среднего сына упала на двор купеческий, а стрела Ивана, младшего сына, упала на болото к лягушке-квакушке… Завистливые жёны братьев сожгли лягушечью кожу Василисы, и Змей-Горыныч унёс её в свое тёмное царство. Злая Баба-Яга стережёт Василису Прекрасную. Добрый молодец Иван отправляется вызволять свою любимую из лап чудища. Любовь, отвага и смекалка помогают одолеть тёмные силы…
Качество видео: DVDRip
Формат видео: AVIВидео: 640x480 (1.33:1), 25 fps, XviD build 73 ~2078 kbps avg, 0.27 bit/pixel
Аудио: 48 kHz, AC3 Dolby Digital, 1/0 (C) ch, ~128 kbps

MediaInfo

General
Complete name : H:\Василиса.Прекрасная.1939.dvdrip_[1.09]_[teko].avi
Format : AVI
Format/Info : Audio Video Interleave
File size : 1.09 GiB
Duration : 1h 10mn
Overall bit rate : 2 216 Kbps
Writing application : VirtualDubMod 1.5.10.3 | www.virtualdub-fr.org || (build 2550/release)
Writing library : VirtualDubMod build 2550/releaseVideo
ID : 0
Format : MPEG-4 Visual
Format profile : Advanced Simple@L5
Format settings, BVOP : 2
Format settings, QPel : No
Format settings, GMC : No warppoints
Format settings, Matrix : Custom
Codec ID : XVID
Codec ID/Hint : XviD
Duration : 1h 10mn
Bit rate : 2 079 Kbps
Width : 640 pixels
Height : 480 pixels
Display aspect ratio : 4:3
Frame rate : 25.000 fps
Color space : YUV
Chroma subsampling : 4:2:0
Bit depth : 8 bits
Scan type : Progressive
Compression mode : Lossy
Bits/(Pixel*Frame) : 0.271
Stream size : 1.02 GiB (94%)
Writing library : XviD 73Audio
ID : 1
Format : AC-3
Format/Info : Audio Coding 3
Mode extension : CM (complete main)
Format settings, Endianness : Big
Codec ID : 2000
Duration : 1h 10mn
Bit rate mode : Constant
Bit rate : 128 Kbps
Channel(s) : 1 channel
Channel positions : Front: C
Sampling rate : 48.0 KHz
Frame rate : 31.250 fps (1536 spf)
Compression mode : Lossy
Stream size : 64.2 MiB (6%)
Alignment : Split accross interleaves
Interleave, duration : 40 ms (1.00 video frame)
Interleave, preload duratio : 500 ms
Релиз группы:

Для скачки контента: [Установить программу-клиент] и кликнуть по - СкачатьБезопасность: клиент проверен АВ Касперского

[asmlocator.ru].t512253.torrent 
Торрент: Зарегистрирован [ 2018-03-13 19:30 ] · 5AAD1025E5E15CC445575786DF71C6281A36F3AE

Скачать .torrent

Скачать

11 KB

Статус: проверено
Скачан: 0 раз
Размер: 1,09 GB
terms.php
[Профиль] [ЛС]
Показать сообщения:    
Ответить на тему

Текущее время: 19-Дек 04:27

Часовой пояс: UTC ± 0



Вы не можете начинать темы
Вы не можете отвечать на сообщения
Вы не можете редактировать свои сообщения
Вы не можете удалять свои сообщения
Вы не можете голосовать в опросах
Вы не можете прикреплять файлы к сообщениям
Вы можете скачивать файлы