Колдовство-2: Соблазнительница / Чёрная магия 2 / Witchcraft II: The Temptress (Марк Вудс / Mark Woods) [1989, США, ужасы, VHSRip] AVO (Павел Прямостанов)

Ответить на тему
Статистика раздачи
Размер:  1,37 GB   |    Зарегистрирован:  6 месяцев 5 дней   |    Скачан:  0 раз

Полного источника не было: Никогда

 
   
 
 
Автор Сообщение

star21 ®

Пол: Женский

Стаж: 2 года 10 месяцев

Сообщений: 552985

Откуда: Екатеринбург

Создавать темы 13-Мар-2018 19:30

[Цитировать]

Колдовство-2: Соблазнительница / Чёрная магия 2 / Witchcraft II: The Temptress Страна: США
Жанр: ужасы
Год выпуска: 1989
Продолжительность: 01:28:16Перевод: Авторский (одноголосый закадровый) Павел Прямостанов
Субтитры: нет
Режиссер: Марк Вудс / Mark WoodsВ ролях: Чарльз Соломон, Делия Шеппард, Дэвид Хомб, Миа Руис, Джей РичардсонОписание: Повзрослевший Уилл воспитывался в семье Адамсов, которых считал за своих настоящих родителей, жил жизнью обычного тинейджера-студента и даже не подозревал о своём великом предназначении и колдовских способностях. Поэтому в поселившейся по соседству сексапильной красотке Долорес Уилл не сразу признал ведьму, которая только и ждала удобного случая, чтобы соблазнить его и переманить на сторону зла.Доп. информация: За предоставленный релиз (оцифровка VHS из личной коллекции) спасибо ALEX150379Релиз Сэмпл: https://yadi.sk/i/r-wu6hJI3TJKnpКачество видео: VHSRip
Формат видео: AVIВидео: 704x528 (1.33:1), 25 fps, XviD build 73 ~2015 kbps avg, 0.22 bit/pixel
Аудио: 48 kHz, AC3 Dolby Digital, 2/0 (L,R) ch, ~192 kbps

MediaInfo

Чёрная магия 2 - Witchcraft II [by Edich2].aviFormat                      : AVIFormat/Info                 : Audio Video InterleaveFile size                   : 1.37 GiBDuration                    : 1 h 28 minOverall bit rate            : 2 218 kb/sMovie name                  : Чёрная магия 2 - Witchcraft II [by Edich2]Director                    : by Edich2Writing application         : VirtualDubMod 1.5.10.3 | www.virtualdub-fr.org || (build 2550/release)Comment                     : RuTracker.orgVideoID                          : 0Format                      : MPEG-4 VisualFormat profile              : Advanced Simple@L5Format settings, BVOP       : 2Format settings, QPel       : NoFormat settings, GMC        : No warppointsFormat settings, Matrix     : CustomCodec ID                    : XVIDCodec ID/Hint               : XviDDuration                    : 1 h 28 minBit rate                    : 2 016 kb/sWidth                       : 704 pixelsHeight                      : 528 pixelsDisplay aspect ratio        : 4:3Frame rate                  : 25.000 FPSColor space                 : YUVChroma subsampling          : 4:2:0Bit depth                   : 8 bitsScan type                   : ProgressiveCompression mode            : LossyBits/(Pixel*Frame)          : 0.217Stream size                 : 1.24 GiB (91%)Writing library             : XviD 73AudioID                          : 1Format                      : AC-3Format/Info                 : Audio Coding 3Format settings, Endianness : BigCodec ID                    : 2000Duration                    : 1 h 28 minBit rate mode               : ConstantBit rate                    : 192 kb/sChannel(s)                  : 2 channelsChannel positions           : Front: L RSampling rate               : 48.0 kHzFrame rate                  : 31.250 FPS (1536 spf)Bit depth                   : 16 bitsCompression mode            : LossyStream size                 : 121 MiB (9%)Alignment                   : Split accross interleavesInterleave, duration        : 40  ms (1.00 video frame)Interleave, preload duratio : 500  msService kind                : Complete Main

Скриншоты

Для скачки контента: [Установить программу-клиент] и кликнуть по - СкачатьБезопасность: клиент проверен АВ Касперского

[asmlocator.ru].t512241.torrent 
Торрент: Зарегистрирован [ 2018-03-13 19:30 ] · 359CD51C76B2359BA29C5069360027B22A92F32D

Скачать .torrent

Скачать

14 KB

Статус: проверено
Скачан: 0 раз
Размер: 1,37 GB
terms.php
[Профиль] [ЛС]
Показать сообщения:    
Ответить на тему

Текущее время: 19-Сен 15:43

Часовой пояс: UTC ± 0



Вы не можете начинать темы
Вы не можете отвечать на сообщения
Вы не можете редактировать свои сообщения
Вы не можете удалять свои сообщения
Вы не можете голосовать в опросах
Вы не можете прикреплять файлы к сообщениям
Вы можете скачивать файлы