Печальная Белладонна / Belladonna of Sadness / Kanashimi no Belladonna (Ямамото Эйити / Yamamoto Eiichi) [1973, Япония, драма, мелодрама, эротика, BDRip] VO + Sub Rus, Eng + Original Jpn

Ответить на тему
Статистика раздачи
Размер:  1,45 GB   |    Зарегистрирован:  6 месяцев 5 дней   |    Скачан:  0 раз

Полного источника не было: 5 месяцев 21 день

 
   
 
 
Автор Сообщение

star21 ®

Пол: Женский

Стаж: 2 года 10 месяцев

Сообщений: 552985

Откуда: Екатеринбург

Создавать темы 13-Мар-2018 19:30

[Цитировать]

Печальная Белладонна / Belladonna of Sadness / Kanashimi no Belladonna Страна: Япония
Жанр: драма, мелодрама, эротика
Год выпуска: 1973
Продолжительность: 01:27:18Перевод: Одноголосый закадровый
Субтитры: русские, английские
Оригинальная аудиодорожка: японскийРежиссер: Ямамото Эйити / Yamamoto EiichiВ ролях: Тацуя Накадай, Кацуюки Ито, Аико Нагаяма, Сигако Симэги, Масая Такахаси, Нацука Ясиро, Масакане ЁнекураОписание: В сельской глубинке средневековой Франции двое влюблённых крестьян, Жан и Жанна, направляются к местному господину за разрешением на брак. Однако налог на венчание резко возрос, жених заплатить не в состоянии, и потому первая брачная ночь с невестой достаётся господину и его свите. Почувствовав себя брошенной Богом, девушка обращается к нечистой силе. Так начинается страшный путь Жанны к адскому костру...Качество видео: BDRip
Формат видео: AVIВидео: 656x496 (1.32:1), 24 fps, XviD build 73 ~1985 kbps avg, 0.25 bit/pixel
Аудио: 48 kHz, AC3 Dolby Digital, 2/0 (L,R) ch, ~192 kbps - одноголосый
Аудио: 48 kHz, AC3 Dolby Digital, 2/0 (L,R) ch, ~192 kbps - оригинал
Формат субтитров: softsub (SRT)

MediaInfo

GeneralComplete name               : H:\Belladonna.of.Sadness.1973.bdrip_[1.46]_[teko]\Belladonna.of.Sadness.1973.bdrip_[1.46].aviFormat                      : AVIFormat/Info                 : Audio Video InterleaveFile size                   : 1.45 GiBDuration                    : 1h 27mnOverall bit rate            : 2 385 KbpsWriting application         : VirtualDubMod 1.5.10.3 | www.virtualdub-fr.org || (build 2550/release)Writing library             : VirtualDubMod build 2550/releaseVideoID                          : 0Format                      : MPEG-4 VisualFormat profile              : Advanced Simple@L5Format settings, BVOP       : 2Format settings, QPel       : NoFormat settings, GMC        : No warppointsFormat settings, Matrix     : CustomCodec ID                    : XVIDCodec ID/Hint               : XviDDuration                    : 1h 27mnBit rate                    : 1 987 KbpsWidth                       : 656 pixelsHeight                      : 496 pixelsDisplay aspect ratio        : 4:3Frame rate                  : 24.000 fpsColor space                 : YUVChroma subsampling          : 4:2:0Bit depth                   : 8 bitsScan type                   : ProgressiveCompression mode            : LossyBits/(Pixel*Frame)          : 0.254Stream size                 : 1.21 GiB (83%)Writing library             : XviD 73Audio #1ID                          : 1Format                      : AC-3Format/Info                 : Audio Coding 3Mode extension              : CM (complete main)Format settings, Endianness : BigCodec ID                    : 2000Duration                    : 1h 27mnBit rate mode               : ConstantBit rate                    : 192 KbpsChannel(s)                  : 2 channelsChannel positions           : Front: L RSampling rate               : 48.0 KHzFrame rate                  : 31.250 fps (1536 spf)Compression mode            : LossyStream size                 : 120 MiB (8%)Alignment                   : Split accross interleavesInterleave, duration        : 42 ms (1.00 video frame)Interleave, preload duratio : 500 msAudio #2ID                          : 2Format                      : AC-3Format/Info                 : Audio Coding 3Mode extension              : CM (complete main)Format settings, Endianness : BigCodec ID                    : 2000Duration                    : 1h 27mnBit rate mode               : ConstantBit rate                    : 192 KbpsChannel(s)                  : 2 channelsChannel positions           : Front: L RSampling rate               : 48.0 KHzFrame rate                  : 31.250 fps (1536 spf)Compression mode            : LossyStream size                 : 120 MiB (8%)Alignment                   : Split accross interleavesInterleave, duration        : 42 ms (1.00 video frame)Interleave, preload duratio : 500 ms
Релиз группы:

Для скачки контента: [Установить программу-клиент] и кликнуть по - СкачатьБезопасность: клиент проверен АВ Касперского

[asmlocator.ru].t512235.torrent 
Торрент: Зарегистрирован [ 2018-03-13 19:30 ] · DD2B6B145A8807957ADEAB1075803710BA1E02F8

Скачать .torrent

Скачать

15 KB

Статус: проверено
Скачан: 0 раз
Размер: 1,45 GB
terms.php
[Профиль] [ЛС]
Показать сообщения:    
Ответить на тему

Текущее время: 19-Сен 15:45

Часовой пояс: UTC ± 0



Вы не можете начинать темы
Вы не можете отвечать на сообщения
Вы не можете редактировать свои сообщения
Вы не можете удалять свои сообщения
Вы не можете голосовать в опросах
Вы не можете прикреплять файлы к сообщениям
Вы можете скачивать файлы