Roxy Music - \'The Thrill Of It All\' (DVD2 79-82) [2007, rock, DVDRip]

Ответить на тему
Статистика раздачи
Размер:  760 MB   |    Зарегистрирован:  3 месяца 9 дней   |    Скачан:  0 раз

Полного источника не было: 2 месяца 20 дней

 
   
 
 
Автор Сообщение

star21 ®

Пол: Не указан

Стаж: 2 года 7 месяцев

Сообщений: 532181

Создавать темы 13-Мар-2018 15:20

[Цитировать]

Roxy Music - 'The Thrill Of It All' (DVD2 79-82) Жанр: rock
Продолжительность: 01:02:21.
Год выпуска: 2007
Описание: Второй диск Roxy Music - 'The Thrill Of It All' (DVD2 79-82)
( материалом поделился st00st3 )
!й ДВД раздается тут - http://rutracker.org/forum/viewtopic.php?t=5533238
Треклист:
1.Dance Away
2.Manifesto (Live)
3.A Song For Europe (Live)
4.Still Falls The Rain (Live)
5.Ain't That So (Live)
6.Angel Eyes
7.Trash
8.Over You
9.Oh Yeah! (On The Radio)
10.Same Old Scene
11.Rain,Rain,Rain
12.Flesh And Blood
13.Jelaous Guy
14.The Main Thing (live)
15.While My Heart Is Still Beating (live)
16.Avalon (live)
17.My Only Love (live)
18.More Than This
Bonus Tracks:
1.The Main Thing
2.Avalon
Доп. информация: по видео

скрытый текст

Полное имя 02.Roxy Music The Thrill Of It All( DVD2)79-82.avi
Формат : AVI
Формат/Информация : Audio Video Interleave
Размер файла : 760 Мбайт
Продолжительность : 1 ч. 2 м.
Общий поток : 1704 Кбит/сек
Программа кодирования : Lavf51.12.1Видео
Идентификатор : 0
Формат : xvid
Идентификатор кодека : xvid
Продолжительность : 1 ч. 2 м.
Битрейт : 1501 Кбит/сек
Ширина : 640 пикселей
Высота : 480 пикселей
Соотношение сторон : 4:3
Частота кадров : 25,000 кадров/сек
Бит/(Пиксели*Кадры) : 0.195
Размер потока : 669 Мбайт (88%)Аудио
Идентификатор : 1
Формат : AC-3
Формат/Информация : Audio Coding 3
Расширение режима : CM (complete main)
Параметр Endianness формата : Big
Идентификатор кодека : 2000
Продолжительность : 1 ч. 2 м.
Вид битрейта : Постоянный
Битрейт : 192 Кбит/сек
Каналы : 2 канала
Расположение каналов : Front: L R
Частота : 48,0 КГц
Битовая глубина : 16 бит
Метод сжатия : С потерями
Размер потока : 85,6 Мбайт (11%)
Выравнивание : Соединение по промежуткам
Продолжительность промежутка : 32 мс. (0,80 видеокадр)
Время предзагрузки промежутка : 32 мс.
Источник: собственный рип
Cсылка http://rutracker.org/forum/viewtopic.php?t=2670774
Качество: DVDRip
Контейнер: AVI
Видео кодек: XviD
Аудио кодек: AC3
Видео: 640x480 (1.33:1), 25 fps, XviD build 63 ~1500 kbps avg, 0.20 bit/pixel
Аудио: 48 kHz, AC3 Dolby Digital, 2/0 (L,R) ch, ~192.00 kbps avg

Скриншоты

Для скачки контента: [Установить программу-клиент] и кликнуть по - СкачатьБезопасность: клиент проверен АВ Касперского

[asmlocator.ru].t512208.torrent 
Торрент: Зарегистрирован [ 2018-03-13 15:20 ] · 500B7BC6BCD08E3B20DF75EEEB599A2EFC252B47

Скачать .torrent

Скачать

15 KB

Статус: проверено
Скачан: 0 раз
Размер: 760 MB
terms.php
[Профиль] [ЛС]
Показать сообщения:    
Ответить на тему

Текущее время: 23-Июн 02:14

Часовой пояс: UTC ± 0



Вы не можете начинать темы
Вы не можете отвечать на сообщения
Вы не можете редактировать свои сообщения
Вы не можете удалять свои сообщения
Вы не можете голосовать в опросах
Вы не можете прикреплять файлы к сообщениям
Вы можете скачивать файлы