Taylor Swift - Delicate • iHeartRadio Music Awards (World Premiere Music Video) [2018, Country pop, HDTV, 1080i]

Ответить на тему
Статистика раздачи
Размер:  408 MB   |    Зарегистрирован:  3 месяца 9 дней   |    Скачан:  0 раз

Полного источника не было: Никогда

 
   
 
 
Автор Сообщение

star21 ®

Пол: Не указан

Стаж: 2 года 7 месяцев

Сообщений: 532181

Создавать темы 13-Мар-2018 15:20

[Цитировать]

Taylor Swift
Delicate

Жанр: Country pop
Продолжительность: 00:03:48
Год выпуска: 2018
Качество: HDTV
Разрешение видео/развертка: 1080i
Контейнер: TS
Видео кодек: MPEG2
Аудио кодек: AC3
Видео: MPEG2 Video 1920x1080 29.97fps 13.4 Mb/s
Аудио 1: Dolby AC3 48000Hz 6ch 448kbps
Аудио 2: Dolby AC3 48000Hz stereo 192kbps

Отчёт MediaInfo / BDInfo

GeneralID                             : 1 (0x1)Complete name                  : F:\Taylor Swift - Delicate - iHeartRadio Music Awards (World Premiere Music Video) 2018.tsFormat                         : MPEG-TSFile size                      : 408 MiBDuration                       : 3 min 48 sOverall bit rate mode          : VariableOverall bit rate               : 15.0 Mb/sMovie name                     : Special, 2018 iHeartRadio MusicLaw rating                     : TV-14 (DL)VideoID                             : 6841 (0x1AB9)Menu ID                        : 1 (0x1)Format                         : MPEG VideoFormat version                 : Version 2Format profile                 : Main@HighFormat settings, BVOP          : YesFormat settings, Matrix        : CustomFormat settings, GOP           : VariableFormat settings, picture struc : FrameCodec ID                       : 2Duration                       : 3 min 47 sBit rate mode                  : VariableBit rate                       : 13.4 Mb/sMaximum bit rate               : 15.0 Mb/sWidth                          : 1 920 pixelsHeight                         : 1 080 pixelsDisplay aspect ratio           : 16:9Frame rate                     : 29.970 (30000/1001) FPSColor space                    : YUVChroma subsampling             : 4:2:0Bit depth                      : 8 bitsScan type                      : InterlacedScan order                     : Top Field FirstCompression mode               : LossyBits/(Pixel*Frame)             : 0.216Time code of first frame       : 00:00:00;00Time code source               : Group of pictures headerGOP, Open/Closed               : OpenGOP, Open/Closed of first fram : ClosedStream size                    : 364 MiB (89%)Audio #1ID                             : 6842 (0x1ABA)Menu ID                        : 1 (0x1)Format                         : AC-3Format/Info                    : Audio Coding 3Format settings, Endianness    : BigCodec ID                       : 6Duration                       : 3 min 47 sBit rate mode                  : ConstantBit rate                       : 448 kb/sChannel(s)                     : 6 channelsChannel positions              : Front: L C R, Side: L R, LFESampling rate                  : 48.0 kHzFrame rate                     : 31.250 FPS (1536 SPF)Bit depth                      : 16 bitsCompression mode               : LossyDelay relative to video        : 9 msStream size                    : 12.2 MiB (3%)Language                       : EnglishService kind                   : Complete MainAudio #2ID                             : 6843 (0x1ABB)Menu ID                        : 1 (0x1)Format                         : AC-3Format/Info                    : Audio Coding 3Format settings, Endianness    : BigCodec ID                       : 6Duration                       : 3 min 47 sBit rate mode                  : ConstantBit rate                       : 192 kb/sChannel(s)                     : 2 channelsChannel positions              : Front: L RSampling rate                  : 48.0 kHzFrame rate                     : 31.250 FPS (1536 SPF)Bit depth                      : 16 bitsCompression mode               : LossyDelay relative to video        : 30 msStream size                    : 5.21 MiB (1%)Language                       : SpanishService kind                   : Complete MainAudio #3ID                             : 6844 (0x1ABC)Menu ID                        : 1 (0x1)Format                         : AC-3Format/Info                    : Audio Coding 3Format settings, Endianness    : BigCodec ID                       : 6Duration                       : 3 min 47 sBit rate mode                  : ConstantBit rate                       : 192 kb/sChannel(s)                     : 2 channelsChannel positions              : Front: L RSampling rate                  : 48.0 kHzFrame rate                     : 31.250 FPS (1536 SPF)Bit depth                      : 16 bitsCompression mode               : LossyDelay relative to video        : 30 msStream size                    : 5.21 MiB (1%)Language                       : PortugueseService kind                   : Complete Main

Скриншоты

Для скачки контента: [Установить программу-клиент] и кликнуть по - СкачатьБезопасность: клиент проверен АВ Касперского

[asmlocator.ru].t512199.torrent 
Торрент: Зарегистрирован [ 2018-03-13 15:20 ] · D1D6D86FE0AF00A3A4779E90AE5E168848657745

Скачать .torrent

Скачать

16 KB

Статус: проверено
Скачан: 0 раз
Размер: 408 MB
terms.php
[Профиль] [ЛС]
Показать сообщения:    
Ответить на тему

Текущее время: 23-Июн 02:13

Часовой пояс: UTC ± 0



Вы не можете начинать темы
Вы не можете отвечать на сообщения
Вы не можете редактировать свои сообщения
Вы не можете удалять свои сообщения
Вы не можете голосовать в опросах
Вы не можете прикреплять файлы к сообщениям
Вы можете скачивать файлы