(Eurodance, Euro House) [CDM] Systematixx - Move It Up (Gimme Your Lovin\') - 1995, FLAC (image+.cue), lossless

Ответить на тему
Статистика раздачи
Размер:  145 MB   |    Зарегистрирован:  9 месяцев 5 дней   |    Скачан:  0 раз

Полного источника не было: Никогда

 
   
 
 
Автор Сообщение

star21 ®

Пол: Женский

Стаж: 3 года 1 месяц

Сообщений: 552863

Откуда: Екатеринбург

Создавать темы 13-Мар-2018 13:10

[Цитировать]

Systematixx / Move It Up (Gimme Your Lovin') Жанр: Eurodance, Euro House
Носитель: CDM
Страна-производитель диска (релиза): Germany
Год издания: 1995
Издатель (лейбл): WEA
Номер по каталогу: 4509 99745-2
Аудиокодек: FLAC (*.flac)
Тип рипа: image+.cue
Битрейт аудио: lossless
Продолжительность: 00:19:04
Источник (релизер): Int2009
Наличие сканов в содержимом раздачи: даТреклист:
01 Move It Up (Gimme Your Lovin') (Airplay Mix) 03:43
02 Move It Up (Gimme Your Lovin') (Short Cut) 03:53
03 Move It Up (Gimme Your Lovin') (Dance Version) 06:24
04 Move It Up (Gimme Your Lovin') (Energy Remix) 05:03

Лог создания рипа

Exact Audio Copy V1.3 from 2. September 2016Отчёт EAC об извлечении, выполненном 2. марта 2018, 11:30Systematixx / Move It Up (Gimme Your Lovin')Дисковод: ASUS    DRW-1814BLT   Adapter: 1  ID: 0Режим чтения                 : ДостоверностьИспользование точного потока : ДаОтключение кэша аудио        : ДаИспользование указателей C2  : НетКоррекция смещения при чтении                     : 6Способность читать области Lead-in и Lead-out     : НетЗаполнение пропущенных сэмплов тишиной            : ДаУдаление блоков с тишиной в начале и конце        : НетПри вычислениях CRC использовались нулевые сэмплы : ДаИнтерфейс                                         : Встроенный Win32-интерфейс для Win NT/2000Выходной формат          : Пользовательский кодировщикВыбранный битрейт        : 128 kBit/sКачество                 : ВысокийДобавление ID3-тега      : НетУтилита сжатия           : C:\Program Files (x86)\Exact Audio Copy\Flac\flac.exeДополнительные параметры : -V -8 %source%TOC извлечённого CD     Трек |   Старт  | Длительность | Начальный сектор | Конечный сектор    ---------------------------------------------------------------------       1  |  0:00.00 |    3:43.25   |           0      |      16749       2  |  3:43.25 |    3:53.27   |       16750      |      34251       3  |  7:36.52 |    6:24.00   |       34252      |      63051       4  | 14:00.52 |    5:03.30   |       63052      |      85806Характеристики диапазона извлечения и сообщения об ошибкахВыбранный диапазон     Имя файла F:\Торрент\Мои Раздачи\CDM\Systematixx - Move It Up (Gimme Your Lovin') (CDM-1995)\Systematixx - Move It Up (Gimme Your Lovin').wav     Пиковый уровень 100.0 %     Скорость извлечения 6.7 X     Качество диапазона 99.9 %     CRC теста D4135071     CRC копии D4135071     Копирование... OKОшибок не произошлоAccurateRip: сводкаТрек  1  отсутствует в базе данныхТрек  2  отсутствует в базе данныхТрек  3  отсутствует в базе данныхТрек  4  отсутствует в базе данныхНи одного трека нет в базе AccurateRipКонец отчёта==== Контрольная сумма отчёта AC4CEBB2E78D58D0831BAB39F114FDE82266CA407AE11D2134DB818D5F97EF56 ====

Для скачки контента: [Установить программу-клиент] и кликнуть по - СкачатьБезопасность: клиент проверен АВ Касперского

[asmlocator.ru].t512155.torrent 
Торрент: Зарегистрирован [ 2018-03-13 13:10 ] · 1692FD4FE135B72D2C8A8A56C1AEB86272A9021F

Скачать .torrent

Скачать

12 KB

Статус: проверено
Скачан: 0 раз
Размер: 145 MB
terms.php
[Профиль] [ЛС]
Показать сообщения:    
Ответить на тему

Текущее время: 19-Дек 04:28

Часовой пояс: UTC ± 0



Вы не можете начинать темы
Вы не можете отвечать на сообщения
Вы не можете редактировать свои сообщения
Вы не можете удалять свои сообщения
Вы не можете голосовать в опросах
Вы не можете прикреплять файлы к сообщениям
Вы можете скачивать файлы