Нет игры - нет жизни (фильм) / No Game No Life Zero (Исидзука Ацуко) [Movie+Special] [без хардсаба] [1+1 из 1+1] [JAP+SUB] & [1+0 из 1+1] [RUS(ext)] [2017, приключения, фэнтези, драма, BDRip] [1080p]

Ответить на тему
Статистика раздачи
Размер:  4,03 GB   |    Зарегистрирован:  6 месяцев 6 дней   |    Скачан:  0 раз

Полного источника не было: Никогда

 
   
 
 
Автор Сообщение

star21 ®

Пол: Женский

Стаж: 2 года 10 месяцев

Сообщений: 552985

Откуда: Екатеринбург

Создавать темы 13-Мар-2018 13:10

[Цитировать]

Нет игры - нет жизни (фильм) / No Game No Life Zero Год выпуска: 2017
Страна: Япония
Жанр: приключения, фэнтези, драма
Тип: Movie+Special
Продолжительность: Movie 106 мин / Sp 2 мин.Режиссёр: Исидзука Ацуко
Автор оригинала: Камия Ю
Студия: Madhouse StudiosОзвучка:
Двухголосная (муж./жен.) Jam & Trina D (AniDUB) только фильмСубтитры: есть
русские (внешние) ASS
Фильм
от Aero, Helge, Nika_Elrik, Yukigawa [YakuSub Studio] полные/надписи
от MeLarie, Lollipop [Risens team] полные
Спэшл
от Horodep, Чифу полныеОписание: Эта история происходит за шесть тысяч лет до того, как Сора и Широ появились в истории Дисборда.
Война уничтожила землю, разрывая небеса, разрушая звёзды и даже угрожая уничтожить всё человечество. Среди хаоса и разрушения молодой человек по имени Рику ведёт человечество к завтрашнему дню по велению своего сердца. В один прекрасный день, в руинах города эльфов, он встречает Шуви, девушку-изгнанницу Экс-Машин, которая просит научить её, что значит иметь человеческое сердце.
© SpaKeИнформационные ссылки: AniDB | MyAnimeList | World ArtОзвучку, субтитры взял из релиза Horodep'aКачество: BDRip
Релиз/Автор рипа: Beatrice-Raws/Jensen
Совместимость с бытовыми плеерами: Нет
Наличие линковки: нет
Тип видео: без хардсаба
Формат: MKV
Видео: x264, 1280x720, (16/9), ~4850кбит/с, 23,976fps, 10 bit
Аудио #1 (внешняя) русская - AAC, 2 ch, 192кбит/с, 48000Hz
Аудио #2 (в контейнере) японская - Vorbis, 2 ch, 256кбит/с, 48000Hz

Инструкция по просмотру

* Чтобы смотреть с озвучкой, необходимо из папки Rus sound переписать файлы в папку, где находятся видеофайлы. Далее, следует запустить плеер и переключиться на mka-дорожку. Подробное описание здесь
* Чтобы смотреть 10-битное видео (10bit), необходимо, исходя из ваших предпочтений используемого проигрывателя, воспользоваться
этой инструкцией.
* Чтобы смотреть с субтитрами, необходимо из папки к примеру [YakuSub Studio] переписать файлы в папку, где находятся видеофайлы. В большинстве плееров, одноимённые субтитры подключатся автоматически.

Серия состоит из

#1 Нет игры - нет жизни [ТВ] - ТВ (12 эп. + спэшлы), адаптация ранобэ, 2014
#2 Нет игры - нет жизни (фильм) - п/ф, адаптация ранобэ, 2017

Скриншоты

MediaInfo

Фильм

Общее
Уникальный идентификатор : 83520035830365330225823143796585573791 (0x3ED55FB11B9469CB6C02F3B090B0AD9F)
Полное имя : D:\Торенты №2\No Game No Life Zero [BDRip 720p]\[Beatrice-Raws] No Game No Life Zero [BDRip 1280x720 x264 Vorbis].mkv
Формат : Matroska
Версия формата : Version 4 / Version 2
Размер файла : 3,77 Гбайт
Продолжительность : 1 ч. 46 м.
Режим общего битрейта : Переменный
Общий поток : 5095 Кбит/сек
Дата кодирования : UTC 2018-02-26 05:35:02
Программа кодирования : mkvmerge v21.0.0 ('Tardigrades Will Inherit The Earth') 64-bit
Библиотека кодирования : libebml v1.3.5 + libmatroska v1.4.8Видео
Идентификатор : 1
Формат : AVC
Формат/Информация : Advanced Video Codec
Профиль формата : High 10@L5
Параметр CABAC формата : Да
Параметр ReFrames формата : 6 кадров
Идентификатор кодека : V_MPEG4/ISO/AVC
Продолжительность : 1 ч. 45 м.
Битрейт : 4853 Кбит/сек
Ширина : 1280 пикселей
Высота : 720 пикселей
Соотношение сторон : 16:9
Режим частоты кадров : Постоянный
Частота кадров : 23,976 (24000/1001) кадра/сек
Цветовое пространство : YUV
Субдискретизация насыщенности : 4:2:0
Битовая глубина : 10 бит
Тип развёртки : Прогрессивная
Бит/(Пиксели*Кадры) : 0.220
Размер потока : 3,59 Гбайт (95%)
Заголовок : BDrip by Jensen
Библиотека кодирования : x264 core 152 r2851 ba24899 (DJATOM's build)
Настройки программы : cabac=1 / ref=6 / deblock=1:1:-1 / analyse=0x3:0x113 / me=umh / subme=9 / psy=1 / psy_rd=1.00:0.00 / mixed_ref=1 / me_range=32 / chroma_me=1 / trellis=2 / 8x8dct=1 / cqm=0 / deadzone=21,11 / fast_pskip=1 / chroma_qp_offset=-2 / threads=22 / lookahead_threads=3 / sliced_threads=0 / nr=0 / decimate=1 / interlaced=0 / bluray_compat=0 / constrained_intra=0 / bframes=9 / b_pyramid=2 / b_adapt=2 / b_bias=0 / direct=1 / weightb=1 / open_gop=0 / weightp=2 / keyint=240 / keyint_min=23 / scenecut=40 / intra_refresh=0 / rc=crf / mbtree=0 / crf=14.0000 / qcomp=0.72 / qpmin=0 / qpmax=81 / qpstep=4 / ip_ratio=1.40 / pb_ratio=1.30 / aq=1:0.85
Язык : Japanese
Default : Да
Forced : Нет
Цветовой диапазон : Limited
Основные цвета : BT.709
Характеристики трансфера : BT.709
Коэффициенты матрицы : BT.709Аудио
Идентификатор : 2
Формат : Vorbis
Параметр Floor формата : 1
Идентификатор кодека : A_VORBIS
Продолжительность : 1 ч. 46 м.
Вид битрейта : Переменный
Битрейт : 256 Кбит/сек
Каналы : 2 канала
Расположение каналов : Front: L R
Частота : 48,0 КГц
Частота кадров : 105,795 кадров/сек (454 spf)
Метод сжатия : С потерями
Размер потока : 182 Мбайт (5%)
Библиотека кодирования : aoTuV 20110424 (UTC 2011-04-24)
Язык : Japanese
Default : Да
Forced : НетМеню
00:00:00.000 : en:Avant
00:05:01.467 : en:Part A
00:13:27.306 : en:Part B
00:33:18.997 : en:Part C
00:38:03.823 : en:Part D
00:44:23.285 : en:Part E
00:58:42.519 : en:Part F
01:04:49.635 : en:Part G
01:13:05.381 : en:Part H
01:19:51.536 : en:Part I
01:24:56.091 : en:Part J
01:33:25.850 : en:Part K
01:38:44.919 : en:Part L
01:41:11.565 : en:ED

Спэшл

Общее
Уникальный идентификатор : 99105711849433970678381825412861831185 (0x4A8F10D8FE6EA525EC2C5B87F9F0A811)
Полное имя : D:\Торенты №2\No Game No Life Zero [BDRip 720p]\Special\[Beatrice-Raws] No Game No Life Zero (Theater manner anime) [BDRip 1280x720 x264 Vorbis].mkv
Формат : Matroska
Версия формата : Version 4 / Version 2
Размер файла : 119 Мбайт
Продолжительность : 2 м. 31 с.
Режим общего битрейта : Переменный
Общий поток : 6601 Кбит/сек
Дата кодирования : UTC 2018-02-26 05:46:42
Программа кодирования : mkvmerge v21.0.0 ('Tardigrades Will Inherit The Earth') 64-bit
Библиотека кодирования : libebml v1.3.5 + libmatroska v1.4.8Видео
Идентификатор : 1
Формат : AVC
Формат/Информация : Advanced Video Codec
Профиль формата : High 10@L5
Параметр CABAC формата : Да
Параметр ReFrames формата : 6 кадров
Идентификатор кодека : V_MPEG4/ISO/AVC
Продолжительность : 2 м. 31 с.
Битрейт : 6351 Кбит/сек
Ширина : 1280 пикселей
Высота : 720 пикселей
Соотношение сторон : 16:9
Режим частоты кадров : Постоянный
Частота кадров : 23,976 (24000/1001) кадра/сек
Цветовое пространство : YUV
Субдискретизация насыщенности : 4:2:0
Битовая глубина : 10 бит
Тип развёртки : Прогрессивная
Бит/(Пиксели*Кадры) : 0.287
Размер потока : 114 Мбайт (96%)
Заголовок : BDrip by Jensen
Библиотека кодирования : x264 core 152 r2851 ba24899 (DJATOM's build)
Настройки программы : cabac=1 / ref=6 / deblock=1:1:-1 / analyse=0x3:0x113 / me=umh / subme=9 / psy=1 / psy_rd=1.00:0.00 / mixed_ref=1 / me_range=32 / chroma_me=1 / trellis=2 / 8x8dct=1 / cqm=0 / deadzone=21,11 / fast_pskip=1 / chroma_qp_offset=-2 / threads=22 / lookahead_threads=3 / sliced_threads=0 / nr=0 / decimate=1 / interlaced=0 / bluray_compat=0 / constrained_intra=0 / bframes=9 / b_pyramid=2 / b_adapt=2 / b_bias=0 / direct=1 / weightb=1 / open_gop=0 / weightp=2 / keyint=240 / keyint_min=23 / scenecut=40 / intra_refresh=0 / rc=crf / mbtree=0 / crf=14.0000 / qcomp=0.72 / qpmin=0 / qpmax=81 / qpstep=4 / ip_ratio=1.40 / pb_ratio=1.30 / aq=1:0.85
Язык : Japanese
Default : Да
Forced : Нет
Цветовой диапазон : Limited
Основные цвета : BT.709
Характеристики трансфера : BT.709
Коэффициенты матрицы : BT.709Аудио
Идентификатор : 2
Формат : Vorbis
Параметр Floor формата : 1
Идентификатор кодека : A_VORBIS
Продолжительность : 2 м. 31 с.
Вид битрейта : Переменный
Битрейт : 256 Кбит/сек
Каналы : 2 канала
Частота : 48,0 КГц
Частота кадров : 135,174 кадров/сек (355 spf)
Метод сжатия : С потерями
Размер потока : 4,45 Мбайт (4%)
Библиотека кодирования : aoTuV 20110424 (UTC 2011-04-24)
Язык : Japanese
Default : Да
Forced : Нет

Для скачки контента: [Установить программу-клиент] и кликнуть по - СкачатьБезопасность: клиент проверен АВ Касперского

[asmlocator.ru].t512134.torrent 
Торрент: Зарегистрирован [ 2018-03-13 13:10 ] · 690AAF55D2E50DB0987A0C1310205A2174EFDC3F

Скачать .torrent

Скачать

12 KB

Статус: проверено
Скачан: 0 раз
Размер: 4,03 GB
terms.php
[Профиль] [ЛС]
Показать сообщения:    
Ответить на тему

Текущее время: 19-Сен 15:44

Часовой пояс: UTC ± 0



Вы не можете начинать темы
Вы не можете отвечать на сообщения
Вы не можете редактировать свои сообщения
Вы не можете удалять свои сообщения
Вы не можете голосовать в опросах
Вы не можете прикреплять файлы к сообщениям
Вы можете скачивать файлы