Звёздные войны: Повстанцы / Star Wars Rebels / Сезон: 4 / Серии: 1-16 (16) (Саймон Кинберг / Simon Kinberg, Дэйв Филони / Dave Filoni) [2017, Фантастика, мультсериал, приключения, WEB-DL 1080p] MVO (LostFilm) + Original + Subs (Eng)

Ответить на тему
Статистика раздачи
Размер:  21,51 GB   |    Зарегистрирован:  9 месяцев 6 дней   |    Скачан:  0 раз

Полного источника не было: Никогда

 
   
 
 
Автор Сообщение

star21 ®

Пол: Женский

Стаж: 3 года 1 месяц

Сообщений: 552863

Откуда: Екатеринбург

Создавать темы 12-Мар-2018 22:25

[Цитировать]

Звёздные войны: Повстанцы / Star Wars RebelsСтрана: США
Год выпуска: 2017
Жанр: Фантастика, мультсериал, приключения
Перевод: Профессиональный (многоголосый закадровый)
Продолжительность обычных серий: ~22:00
Русские субтитры: нет
Режиссёр:
Саймон Кинберг / Simon Kinberg, Дэйв Филони / Dave Filoni, Стивен Дж. Ли / Steven G. LeeРоли озвучивали:
Тейлор Грэй — Эзра Бриджер
Фредди Принц младший — Кэнан Джарус
Билли Ди Уильямс — Лэндо Калриссиан
Ванесса Маршалл — Гера Синдулла
Стивен Блюм — Гаразеб Оррелиоз (Зеб)
Тия Сиркар — Сабин Врен
Дэвид Ойелово — Агент Каллус
Эшли Экштейн — Асока Тано
Джеймс Эрл Джонс - Дарт Вейдер
Описание: Анимационный телесериал, действие которого разворачивается в период между фильмами «Звёздные войны. Эпизод III: Месть ситхов» и «Звёздные войны. Эпизод IV: Новая надежда». Сериал будет рассказывать о разномастной группе повстанцев, экипаже космического корабля «Призрак», и их борьбе против Галактической Империи.Все раздачи мультсериала / Сэмпл**Качество: WEB-DL 1080p
**Формат: MKV
**Видео: AVC, 1920x1080, 23.976 fps, ~5500 kbps
**Аудио Rus: AC3, 48 KHz, 2 ch, 384 kbps (LostFilm)
**Аудио Eng: AC3, 48 KHz, 6 ch, 384 kbps
**Субтитры: английские

Подробные технические данные

GeneralUnique ID                      : 211080739556631237744802494431235697776 (0x9ECCABF480785395B6C8DD42FFC86C70)Complete name                  : C:\Users\Desktop\Star Wars Rebels (Season 4) WEB-DL 1080p\01. Heroes of Mandalore (Part 1).mkvFormat                         : MatroskaFormat version                 : Version 4 / Version 2File size                      : 1.45 GiBDuration                       : 21 min 37 sOverall bit rate mode          : VariableOverall bit rate               : 9 621 kb/sEncoded date                   : UTC 2018-03-11 09:59:10Writing application            : mkvmerge v16.0.0 ('Protest') 64-bitWriting library                : libebml v1.3.5 + libmatroska v1.4.8VideoID                             : 1Format                         : AVCFormat/Info                    : Advanced Video CodecFormat profile                 : High@L4Format settings                : CABAC / 4 Ref FramesFormat settings, CABAC         : YesFormat settings, RefFrames     : 4 framesCodec ID                       : V_MPEG4/ISO/AVCDuration                       : 21 min 37 sBit rate mode                  : VariableBit rate                       : 8 594 kb/sMaximum bit rate               : 15.0 Mb/sWidth                          : 1 920 pixelsHeight                         : 1 080 pixelsDisplay aspect ratio           : 16:9Frame rate mode                : ConstantFrame rate                     : 23.976 (24000/1001) FPSColor space                    : YUVChroma subsampling             : 4:2:0Bit depth                      : 8 bitsScan type                      : ProgressiveBits/(Pixel*Frame)             : 0.173Stream size                    : 1.30 GiB (89%)Default                        : YesForced                         : NoColor range                    : LimitedColor primaries                : BT.709Transfer characteristics       : BT.709Matrix coefficients            : BT.709Audio #1ID                             : 2Format                         : AC-3Format/Info                    : Audio Coding 3Format settings, Endianness    : BigCodec ID                       : A_AC3Duration                       : 21 min 36 sBit rate mode                  : ConstantBit rate                       : 384 kb/sChannel(s)                     : 2 channelsChannel positions              : Front: L RSampling rate                  : 48.0 kHzFrame rate                     : 31.250 FPS (1536 SPF)Bit depth                      : 16 bitsCompression mode               : LossyStream size                    : 59.4 MiB (4%)Title                          : LostFilmLanguage                       : RussianService kind                   : Complete MainDefault                        : YesForced                         : NoAudio #2ID                             : 3Format                         : E-AC-3Format/Info                    : Enhanced Audio Coding 3Format settings, Endianness    : BigCodec ID                       : A_EAC3Duration                       : 21 min 37 sBit rate mode                  : ConstantBit rate                       : 640 kb/sChannel(s)                     : 6 channelsChannel positions              : Front: L C R, Side: L R, LFESampling rate                  : 48.0 kHzFrame rate                     : 187.500 FPS (256 SPF)Compression mode               : LossyStream size                    : 99.0 MiB (7%)Language                       : EnglishService kind                   : Complete MainDefault                        : NoForced                         : NoTextID                             : 4Format                         : UTF-8Codec ID                       : S_TEXT/UTF8Codec ID/Info                  : UTF-8 Plain TextDuration                       : 20 min 42 sBit rate                       : 53 b/sCount of elements              : 290Stream size                    : 8.06 KiB (0%)Language                       : EnglishDefault                        : NoForced                         : No

Список серий

01. Герои Мандалора. Часть 1 (Heroes of Mandalore (Part 1))
02. Герои Мандалора. Часть 2 (Heroes of Mandalore (Part 2))
03. Во имя Восстания. Часть 1 (In the Name of the Rebellion (Part 1))
04. Во имя Восстания. Часть 2 (In the Name of the Rebellion (Part 2))
05. Оккупация (The Occupation)
06. Полет Защитника (Flight of the Defender)
07. Сродство душ (Kindred)
08. Командиры краулера (Crawler Commandeers)
09. Атака повстанцев (Rebel Assault)
10. Ночь джедая (Jedi Night)
11. Дьюм (DUME)
12. Волки и портал (Wolves and a Door)
13. Мир между мирами (A World Between Worlds)
14. Надежда глупца (A Fool's Hope)
15-16. Воссоединение семьи – и прощание (Family Reunion - and Farewell)

Скриншоты

Внимание! Раздача ведётся путём добавления новых серий

Внимание! Раздача ведётся путём добавления новых серий; при каждом добавлении создаётся новый торрент. Чтобы начать докачку новой серии, пользователям необходимо сделать следующее:
(1) остановить скачивание,
(2) удалить старый торрент у себя из клиента (старые серии удалять не надо),
(3) скачать новый торрент и запустить его у себя в клиенте вместо старого, при этом указать клиенту путь в старую папку куда и должно происходить скачивание новых серий.
Ваш клиент при этом должен произвести хеширование (проверку) старой папки (если не производит сам - помогите ему сделать это), и будет докачивать только те серии, которых у вас ещё нет. Старые серии при этом не удаляются, а продолжают раздаваться!
Если вы уже удалили старые серии, то предотвратить повторную закачку старых серий можно, отжав галочку в соответствующих местах при запуске нового торрента. По возможности, желательно не удалять старые серии как можно дольше, чтобы релизёр не столько продолжал раздавать старые серии, а смог сконцентрироваться на новых.

Для скачки контента: [Установить программу-клиент] и кликнуть по - СкачатьБезопасность: клиент проверен АВ Касперского

[asmlocator.ru].t512027.torrent 
Торрент: Зарегистрирован [ 2018-03-12 22:25 ] · B170BBC7DF950669387C158B7C3B7FCD731D3AE1

Скачать .torrent

Скачать

216 KB

Статус: проверено
Скачан: 0 раз
Размер: 21,51 GB
terms.php
[Профиль] [ЛС]
Показать сообщения:    
Ответить на тему

Текущее время: 19-Дек 04:29

Часовой пояс: UTC ± 0



Вы не можете начинать темы
Вы не можете отвечать на сообщения
Вы не можете редактировать свои сообщения
Вы не можете удалять свои сообщения
Вы не можете голосовать в опросах
Вы не можете прикреплять файлы к сообщениям
Вы можете скачивать файлы