(Electronic) [CD] Laza Ristovski - Platinum - 2000, FLAC (tracks+.cue), lossless

Ответить на тему
Статистика раздачи
Размер:  344 MB   |    Зарегистрирован:  3 месяца 10 дней   |    Скачан:  0 раз

Полного источника не было: Никогда

 
   
 
 
Автор Сообщение

star21 ®

Пол: Не указан

Стаж: 2 года 7 месяцев

Сообщений: 532181

Создавать темы 12-Мар-2018 20:16

[Цитировать]

Laza Ristovski / Platinum Жанр: Electronic
Носитель: CD
Страна-производитель диска (релиза): Serbia
Год издания: 2000
Издатель (лейбл): Take It Or Leave It Records
Номер по каталогу: 22T55037
Страна исполнителя (группы): Yugoslavia
Аудиокодек: FLAC (*.flac)
Тип рипа: tracks+.cue
Битрейт аудио: lossless
Продолжительность: 01:01:00
Источник (релизер): свои рип
Наличие сканов в содержимом раздачи: даТреклист:
01 Iza horizonta 7:28
02 Domina 7:12
03 Zelena obala 7:30
04 Zagonetke 5:16
05 Figueras 3:45
06 Kaleš bre Anđo 2:57
07 2/3 11:33
08 Blues (Uživo) 4:34
09 Nebo nad Beogradom 4:18
10 Zaboravljeni (Intro) 6:30

Лог создания рипа

Exact Audio Copy V1.0 beta 3 from 29. August 2011EAC extraction logfile from 12. March 2018, 0:59Laza Ristovski / PlatiniumUsed drive  : TSSTcorpCD/DVDW SH-S162L   Adapter: 2  ID: 0Read mode               : SecureUtilize accurate stream : YesDefeat audio cache      : YesMake use of C2 pointers : NoRead offset correction                      : 6Overread into Lead-In and Lead-Out          : NoFill up missing offset samples with silence : YesDelete leading and trailing silent blocks   : NoNull samples used in CRC calculations       : YesUsed interface                              : Native Win32 interface for Win NT & 2000Gap handling                                : Appended to previous trackUsed output format              : User Defined EncoderSelected bitrate                : 896 kBit/sQuality                         : HighAdd ID3 tag                     : NoCommand line compressor         : C:\Program Files\Exact Audio Copy\FLAC\FLAC.EXEAdditional command line options : -V -8 -T "Genre=%genre%" -T "Artist=%artist%" -T "Title=%title%" -T "Album=%albumtitle%" -T "Date=%year%" -T "Tracknumber=%tracknr%" -T "Comment=%comment%" %source%TOC of the extracted CD     Track |   Start  |  Length  | Start sector | End sector    ---------------------------------------------------------        1  |  0:00.00 |  7:31.28 |         0    |    33852        2  |  7:31.28 |  7:15.11 |     33853    |    66488        3  | 14:46.39 |  7:34.20 |     66489    |   100558        4  | 22:20.59 |  5:18.21 |    100559    |   124429        5  | 27:39.05 |  3:47.55 |    124430    |   141509        6  | 31:26.60 |  3:00.33 |    141510    |   155042        7  | 34:27.18 | 11:35.41 |    155043    |   207208        8  | 46:02.59 |  4:35.42 |    207209    |   227875        9  | 50:38.26 |  4:18.43 |    227876    |   247268       10  | 54:56.69 |  6:03.68 |    247269    |   274561Track  1     Filename D:\Music\Rock, Blues, Pop\Laza Ristovski - Platinum - 2000\01 Iza horizonta.wav     Pre-gap length  0:00:02.00     Peak level 80.7 %     Extraction speed 5.5 X     Track quality 100.0 %     Test CRC 260B190F     Copy CRC 260B190F     Copy OKTrack  2     Filename D:\Music\Rock, Blues, Pop\Laza Ristovski - Platinum - 2000\02 Domina.wav     Peak level 99.8 %     Extraction speed 6.3 X     Track quality 100.0 %     Test CRC 9E4329E1     Copy CRC 9E4329E1     Copy OKTrack  3     Filename D:\Music\Rock, Blues, Pop\Laza Ristovski - Platinum - 2000\03 Zelena obala.wav     Peak level 85.0 %     Extraction speed 7.0 X     Track quality 100.0 %     Test CRC E358FDF2     Copy CRC E358FDF2     Copy OKTrack  4     Filename D:\Music\Rock, Blues, Pop\Laza Ristovski - Platinum - 2000\04 Zagonetke.wav     Peak level 69.6 %     Extraction speed 7.3 X     Track quality 100.0 %     Test CRC 64C517C7     Copy CRC 64C517C7     Copy OKTrack  5     Filename D:\Music\Rock, Blues, Pop\Laza Ristovski - Platinum - 2000\05 Figueras.wav     Peak level 67.5 %     Extraction speed 6.4 X     Track quality 99.9 %     Test CRC 0FD5D725     Copy CRC 0FD5D725     Copy OKTrack  6     Filename D:\Music\Rock, Blues, Pop\Laza Ristovski - Platinum - 2000\06 Kales bre Andjo.wav     Peak level 59.1 %     Extraction speed 7.2 X     Track quality 100.0 %     Test CRC 8EE8693B     Copy CRC 8EE8693B     Copy OKTrack  7     Filename D:\Music\Rock, Blues, Pop\Laza Ristovski - Platinum - 2000\07 2,3.wav     Peak level 61.5 %     Extraction speed 8.5 X     Track quality 99.9 %     Test CRC 209172D3     Copy CRC 209172D3     Copy OKTrack  8     Filename D:\Music\Rock, Blues, Pop\Laza Ristovski - Platinum - 2000\08 Blues uzivo.wav     Peak level 49.1 %     Extraction speed 7.8 X     Track quality 99.9 %     Test CRC E65809CF     Copy CRC E65809CF     Copy OKTrack  9     Filename D:\Music\Rock, Blues, Pop\Laza Ristovski - Platinum - 2000\09 Nebo nad Beogradom.wav     Peak level 90.8 %     Extraction speed 9.0 X     Track quality 100.0 %     Test CRC C8FBFF71     Copy CRC C8FBFF71     Copy OKTrack 10     Filename D:\Music\Rock, Blues, Pop\Laza Ristovski - Platinum - 2000\10 Zaboravljeni intro.wav     Peak level 88.2 %     Extraction speed 8.8 X     Track quality 99.9 %     Test CRC 3A71C771     Copy CRC 3A71C771     Copy OKNo errors occurredEnd of status report==== Log checksum 10C64B9EEF59045B009FB3A92F958400D0508BFAD2E17E9AFEADDB9341997DBD ====

Содержание индексной карты (.CUE)

REM GENRE ElectronicREM DATE 2000REM DISCID 980E4C0AREM COMMENT "ExactAudioCopy v1.0b3"PERFORMER "Laza Ristovski"TITLE "Platinium"FILE "01 Iza horizonta.flac" WAVE  TRACK 01 AUDIO    TITLE "Iza horizonta"    PERFORMER "Laza Ristovski"    INDEX 01 00:00:00FILE "02 Domina.flac" WAVE  TRACK 02 AUDIO    TITLE "Domina"    PERFORMER "Laza Ristovski"    INDEX 01 00:00:00FILE "03 Zelena obala.flac" WAVE  TRACK 03 AUDIO    TITLE "Zelena obala"    PERFORMER "Laza Ristovski"    INDEX 01 00:00:00FILE "04 Zagonetke.flac" WAVE  TRACK 04 AUDIO    TITLE "Zagonetke"    PERFORMER "Laza Ristovski"    INDEX 01 00:00:00FILE "05 Figueras.flac" WAVE  TRACK 05 AUDIO    TITLE "Figueras"    PERFORMER "Laza Ristovski"    INDEX 01 00:00:00FILE "06 Kales bre Andjo.flac" WAVE  TRACK 06 AUDIO    TITLE "Kales bre Andjo"    PERFORMER "Laza Ristovski"    INDEX 01 00:00:00FILE "07 2,3.flac" WAVE  TRACK 07 AUDIO    TITLE "2/3"    PERFORMER "Laza Ristovski"    INDEX 01 00:00:00FILE "08 Blues uzivo.flac" WAVE  TRACK 08 AUDIO    TITLE "Blues uzivo"    PERFORMER "Laza Ristovski"    INDEX 01 00:00:00FILE "09 Nebo nad Beogradom.flac" WAVE  TRACK 09 AUDIO    TITLE "Nebo nad Beogradom"    PERFORMER "Laza Ristovski"    INDEX 01 00:00:00FILE "10 Zaboravljeni intro.flac" WAVE  TRACK 10 AUDIO    TITLE "Zaboravljeni intro"    PERFORMER "Laza Ristovski"    INDEX 01 00:00:00

Об альбоме (сборнике)

Compilation album
https://rateyourmusic.com/release/comp/laza_ristovski/platinum/

Состав

Laza Ristovski / keyboards, synths

Для скачки контента: [Установить программу-клиент] и кликнуть по - СкачатьБезопасность: клиент проверен АВ Касперского

[asmlocator.ru].t512005.torrent 
Торрент: Зарегистрирован [ 2018-03-12 20:15 ] · 5456B416CF4272FE3C6A674496DE3F205413FFF5

Скачать .torrent

Скачать

15 KB

Статус: проверено
Скачан: 0 раз
Размер: 344 MB
terms.php
[Профиль] [ЛС]
Показать сообщения:    
Ответить на тему

Текущее время: 23-Июн 02:15

Часовой пояс: UTC ± 0



Вы не можете начинать темы
Вы не можете отвечать на сообщения
Вы не можете редактировать свои сообщения
Вы не можете удалять свои сообщения
Вы не можете голосовать в опросах
Вы не можете прикреплять файлы к сообщениям
Вы можете скачивать файлы