(Industrial, Electro, Experimental) [CD] CLOCK DVA - Sign - 1993, FLAC (tracks+.cue), lossless

Ответить на тему
Статистика раздачи
Размер:  322 MB   |    Зарегистрирован:  3 месяца 11 дней   |    Скачан:  0 раз

Полного источника не было: Никогда

 
   
 
 
Автор Сообщение

star21 ®

Пол: Не указан

Стаж: 2 года 7 месяцев

Сообщений: 532181

Создавать темы 11-Мар-2018 08:26

[Цитировать]

CLOCK DVA / SignЖанр: Industrial, Electro, Experimental
Носитель: CD
Год издания: 1993
Издатель (лейбл): Contempo Records
Номер по каталогу: CONTE 225CD
Аудиокодек: FLAC (*.flac)
Тип рипа: tracks+.cue
Битрейт аудио: lossless
Продолжительность: 48:44
Источник (релизер): обмен
Наличие сканов в содержимом раздачи: да
Треклист:01. Clock DVA - Signal [3:48]
02. Clock DVA - Voice Recognition Test [5:58]
03. Clock DVA - The Obsession Intensifies [5:33]
04. Clock DVA - Two Souls [4:22]
05. Clock DVA - Re-entry [5:57]
06. Clock DVA - Pool of Shades [6:44]
07. Clock DVA - Return to Blue [6:14]
08. Clock DVA - Eternity [4:41]
09. Clock DVA - Sign [5:28]

Лог создания рипа

Exact Audio Copy V1.0 beta 3 from 29. August 2011EAC extraction logfile from 16. July 2015, 19:31Clock DVA / SignUsed drive  : HL-DT-STDVDRAM GH24NSB0   Adapter: 5  ID: 0Read mode               : SecureUtilize accurate stream : YesDefeat audio cache      : YesMake use of C2 pointers : NoRead offset correction                      : 6Overread into Lead-In and Lead-Out          : NoFill up missing offset samples with silence : YesDelete leading and trailing silent blocks   : NoNull samples used in CRC calculations       : YesUsed interface                              : Native Win32 interface for Win NT & 2000Gap handling                                : Appended to previous trackUsed output format              : User Defined EncoderSelected bitrate                : 1024 kBit/sQuality                         : HighAdd ID3 tag                     : NoCommand line compressor         : C:\Program Files (x86)\Exact Audio Copy\Flac\flac.exeAdditional command line options : -8 -V -T "ARTIST=%artist%" -T "TITLE=%title%" -T "ALBUM=%albumtitle%" -T "DATE=%year%" -T "TRACKNUMBER=%tracknr%" -T "TOTALTRACKS=%numtracks%" -T "GENRE=%genre%" -T "ALBUMARTIST=%albumartist%" -T "ALBUM ARTIST=%albumartist%" -T "COMMENT=EAC Secure Mode, Test & Copy, AccurateRip, FLAC -8" %source%TOC of the extracted CD     Track |   Start  |  Length  | Start sector | End sector    ---------------------------------------------------------        1  |  0:00.32 |  3:47.50 |        32    |    17106        2  |  3:48.07 |  5:57.65 |     17107    |    43946        3  |  9:45.72 |  5:32.50 |     43947    |    68896        4  | 15:18.47 |  4:22.05 |     68897    |    88551        5  | 19:40.52 |  5:57.08 |     88552    |   115334        6  | 25:37.60 |  6:43.67 |    115335    |   145626        7  | 32:21.52 |  6:14.03 |    145627    |   173679        8  | 38:35.55 |  4:41.15 |    173680    |   194769        9  | 43:16.70 |  5:27.57 |    194770    |   219351Track  1     Filename D:\1\01 - Signal.wav     Pre-gap length  0:00:02.32     Peak level 100.0 %     Extraction speed 1.0 X     Track quality 100.0 %     Test CRC 03314A70     Copy CRC 03314A70     Accurately ripped (confidence 7)  [6C0A3E9A]  (AR v2)     Copy OKTrack  2     Filename D:\1\02 - Voice Recognition Test.wav     Pre-gap length  0:00:01.60     Peak level 100.0 %     Extraction speed 1.1 X     Track quality 99.9 %     Test CRC 443C797D     Copy CRC 443C797D     Accurately ripped (confidence 7)  [7D2ABCBA]  (AR v2)     Copy OKTrack  3     Filename D:\1\03 - The Obsession Intensifies.wav     Pre-gap length  0:00:03.50     Peak level 100.0 %     Extraction speed 1.2 X     Track quality 99.9 %     Test CRC F0454738     Copy CRC F0454738     Accurately ripped (confidence 7)  [883974D2]  (AR v2)     Copy OKTrack  4     Filename D:\1\04 - Two Souls.wav     Pre-gap length  0:00:04.37     Peak level 97.7 %     Extraction speed 1.4 X     Track quality 100.0 %     Test CRC D228666B     Copy CRC D228666B     Accurately ripped (confidence 7)  [AE3448A9]  (AR v2)     Copy OKTrack  5     Filename D:\1\05 - Re-entry.wav     Pre-gap length  0:00:00.02     Peak level 97.7 %     Extraction speed 1.6 X     Track quality 100.0 %     Test CRC 3A0DFD66     Copy CRC 3A0DFD66     Accurately ripped (confidence 7)  [059D3CB5]  (AR v2)     Copy OKTrack  6     Filename D:\1\06 - Pool of Shades.wav     Pre-gap length  0:00:03.08     Peak level 97.7 %     Extraction speed 1.8 X     Track quality 100.0 %     Test CRC C4F6CAE0     Copy CRC C4F6CAE0     Accurately ripped (confidence 7)  [7DE77E22]  (AR v2)     Copy OKTrack  7     Filename D:\1\07 - Return to Blue.wav     Pre-gap length  0:00:03.52     Peak level 97.7 %     Extraction speed 1.9 X     Track quality 100.0 %     Test CRC 68AD5473     Copy CRC 68AD5473     Accurately ripped (confidence 6)  [34F69529]  (AR v2)     Copy OKTrack  8     Filename D:\1\08 - Eternity.wav     Pre-gap length  0:00:01.50     Peak level 97.7 %     Extraction speed 1.7 X     Track quality 99.9 %     Test CRC 2CD44BD5     Copy CRC 2CD44BD5     Accurately ripped (confidence 6)  [8CE4503E]  (AR v2)     Copy OKTrack  9     Filename D:\1\09 - Sign.wav     Pre-gap length  0:00:06.13     Peak level 97.7 %     Extraction speed 2.0 X     Track quality 100.0 %     Test CRC 38C8DCEE     Copy CRC 38C8DCEE     Accurately ripped (confidence 6)  [981B4A69]  (AR v2)     Copy OKAll tracks accurately rippedNo errors occurredEnd of status report==== Log checksum C991FC8B22E447DF4072ED6200097C19B4D9E032EBEE1C10668316326782852E ====

Содержание индексной карты (.CUE)

Exact Audio Copy V1.0 beta 3 from 29. August 2011EAC extraction logfile from 16. July 2015, 19:31Clock DVA / SignUsed drive  : HL-DT-STDVDRAM GH24NSB0   Adapter: 5  ID: 0Read mode               : SecureUtilize accurate stream : YesDefeat audio cache      : YesMake use of C2 pointers : NoRead offset correction                      : 6Overread into Lead-In and Lead-Out          : NoFill up missing offset samples with silence : YesDelete leading and trailing silent blocks   : NoNull samples used in CRC calculations       : YesUsed interface                              : Native Win32 interface for Win NT & 2000Gap handling                                : Appended to previous trackUsed output format              : User Defined EncoderSelected bitrate                : 1024 kBit/sQuality                         : HighAdd ID3 tag                     : NoCommand line compressor         : C:\Program Files (x86)\Exact Audio Copy\Flac\flac.exeAdditional command line options : -8 -V -T "ARTIST=%artist%" -T "TITLE=%title%" -T "ALBUM=%albumtitle%" -T "DATE=%year%" -T "TRACKNUMBER=%tracknr%" -T "TOTALTRACKS=%numtracks%" -T "GENRE=%genre%" -T "ALBUMARTIST=%albumartist%" -T "ALBUM ARTIST=%albumartist%" -T "COMMENT=EAC Secure Mode, Test & Copy, AccurateRip, FLAC -8" %source%TOC of the extracted CD     Track |   Start  |  Length  | Start sector | End sector    ---------------------------------------------------------        1  |  0:00.32 |  3:47.50 |        32    |    17106        2  |  3:48.07 |  5:57.65 |     17107    |    43946        3  |  9:45.72 |  5:32.50 |     43947    |    68896        4  | 15:18.47 |  4:22.05 |     68897    |    88551        5  | 19:40.52 |  5:57.08 |     88552    |   115334        6  | 25:37.60 |  6:43.67 |    115335    |   145626        7  | 32:21.52 |  6:14.03 |    145627    |   173679        8  | 38:35.55 |  4:41.15 |    173680    |   194769        9  | 43:16.70 |  5:27.57 |    194770    |   219351Track  1     Filename D:\1\01 - Signal.wav     Pre-gap length  0:00:02.32     Peak level 100.0 %     Extraction speed 1.0 X     Track quality 100.0 %     Test CRC 03314A70     Copy CRC 03314A70     Accurately ripped (confidence 7)  [6C0A3E9A]  (AR v2)     Copy OKTrack  2     Filename D:\1\02 - Voice Recognition Test.wav     Pre-gap length  0:00:01.60     Peak level 100.0 %     Extraction speed 1.1 X     Track quality 99.9 %     Test CRC 443C797D     Copy CRC 443C797D     Accurately ripped (confidence 7)  [7D2ABCBA]  (AR v2)     Copy OKTrack  3     Filename D:\1\03 - The Obsession Intensifies.wav     Pre-gap length  0:00:03.50     Peak level 100.0 %     Extraction speed 1.2 X     Track quality 99.9 %     Test CRC F0454738     Copy CRC F0454738     Accurately ripped (confidence 7)  [883974D2]  (AR v2)     Copy OKTrack  4     Filename D:\1\04 - Two Souls.wav     Pre-gap length  0:00:04.37     Peak level 97.7 %     Extraction speed 1.4 X     Track quality 100.0 %     Test CRC D228666B     Copy CRC D228666B     Accurately ripped (confidence 7)  [AE3448A9]  (AR v2)     Copy OKTrack  5     Filename D:\1\05 - Re-entry.wav     Pre-gap length  0:00:00.02     Peak level 97.7 %     Extraction speed 1.6 X     Track quality 100.0 %     Test CRC 3A0DFD66     Copy CRC 3A0DFD66     Accurately ripped (confidence 7)  [059D3CB5]  (AR v2)     Copy OKTrack  6     Filename D:\1\06 - Pool of Shades.wav     Pre-gap length  0:00:03.08     Peak level 97.7 %     Extraction speed 1.8 X     Track quality 100.0 %     Test CRC C4F6CAE0     Copy CRC C4F6CAE0     Accurately ripped (confidence 7)  [7DE77E22]  (AR v2)     Copy OKTrack  7     Filename D:\1\07 - Return to Blue.wav     Pre-gap length  0:00:03.52     Peak level 97.7 %     Extraction speed 1.9 X     Track quality 100.0 %     Test CRC 68AD5473     Copy CRC 68AD5473     Accurately ripped (confidence 6)  [34F69529]  (AR v2)     Copy OKTrack  8     Filename D:\1\08 - Eternity.wav     Pre-gap length  0:00:01.50     Peak level 97.7 %     Extraction speed 1.7 X     Track quality 99.9 %     Test CRC 2CD44BD5     Copy CRC 2CD44BD5     Accurately ripped (confidence 6)  [8CE4503E]  (AR v2)     Copy OKTrack  9     Filename D:\1\09 - Sign.wav     Pre-gap length  0:00:06.13     Peak level 97.7 %     Extraction speed 2.0 X     Track quality 100.0 %     Test CRC 38C8DCEE     Copy CRC 38C8DCEE     Accurately ripped (confidence 6)  [981B4A69]  (AR v2)     Copy OKAll tracks accurately rippedNo errors occurredEnd of status report==== Log checksum C991FC8B22E447DF4072ED6200097C19B4D9E032EBEE1C10668316326782852E ====

Для скачки контента: [Установить программу-клиент] и кликнуть по - СкачатьБезопасность: клиент проверен АВ Касперского

[asmlocator.ru].t511441.torrent 
Торрент: Зарегистрирован [ 2018-03-11 08:25 ] · D84D8101AD7C7C2D45CC841301316E07C4C37F97

Скачать .torrent

Скачать

14 KB

Статус: проверено
Скачан: 0 раз
Размер: 322 MB
terms.php
[Профиль] [ЛС]
Показать сообщения:    
Ответить на тему

Текущее время: 23-Июн 02:08

Часовой пояс: UTC ± 0



Вы не можете начинать темы
Вы не можете отвечать на сообщения
Вы не можете редактировать свои сообщения
Вы не можете удалять свои сообщения
Вы не можете голосовать в опросах
Вы не можете прикреплять файлы к сообщениям
Вы можете скачивать файлы