[ANIME] Синий Экзорцист / Ao no Exorcist (Окамура Тэнсай) [TV][25 из 25][Rus][2011, приключения, мистика, HDTVRip][MP4, 640x]

Ответить на тему
Статистика раздачи
Размер:  3,79 GB   |    Зарегистрирован:  6 месяцев 14 дней   |    Скачан:  0 раз

Полного источника не было: Никогда

 
   
 
 
Автор Сообщение

star21 ®

Пол: Женский

Стаж: 2 года 10 месяцев

Сообщений: 552985

Откуда: Екатеринбург

Создавать темы 04-Мар-2018 23:45

[Цитировать]

Синий Экзорцист / Ao no Exorcist Год выпуска: 2011Страна: Япония
Жанр: приключения, мистика
Продолжительность: >24 эп. по 25 мин.
Перевод: Любительcкий (одноголосый)
Русские субтитры: нет
Режиссер: Окамура ТэнсайПеревод: Dreamers Team
Озвучивание: Milirina
Работа со звуком: ArazuОписание
15-летний Рин Окумура с раннего детства был хулиганом – буйным, вспыльчивым, готовым на все, чтобы отстоять свои «понятия». Парня сдерживало лишь влияние приемного отца-священника, да еще общение с братом-близнецом Юкио. Тем не менее, за стенами монастыря, где жили братья, старшего звали не иначе как «отродьем демона». Увы, звали пророчески – Рин оказался сыном Сатаны, правителя Геенны, который создал сосуд для своего явления в Ассию – материальный мир. Иерархи Церкви хотели уничтожить близнецов Окумура после рождения, но влиятельный отец Фудзимото поклялся воспитать их как людей и не отдавать адским силам. Вот только против Князя Тьмы любая вера бессильна – Сатана, явившийся за сыном, убил его опекуна и удалился, заявив, что никуда парень теперь не денется.
И что теперь? Приемного отца нет, дом в руинах, а за Рином, показавшим свою демоническую природу, явились чистильщики из ордена экзорцистов. Но вместо смертельной битвы сын Сатаны пожелал стать… одним из них! Перед такой шуткой судьбы не смогли устоять даже суровые бойцы с демонами, в итоге Рин отправился в магическую академию Истинного Креста, чтобы поднабраться сил и знаний для серьезного объяснения с «папашей». Путь молодому экзорцисту предстоит долгий, но ведь сказано: «Противитеся же диаволу, и бежит от вас!»© Hollow

Названия эпизодов

01. Demons Live in the Human Heart
02. Gehenna Gate
03. Brothers
04. Garden of Amahara
05. Child of the Cursed Temple
06. The Phantom Cook
07. Flock of Plovers
08. Now a Certain Man was Sick
09. Memories
10. Cat Sith
11. Deep-Sea Demon
12. Tag
13. Proof
14. Fun Camp
15. Act of Kindness
16. The Wager
17. Temptation
18. Gale
19. An Ordinary Day
20. Mask
21. The Secret Garden
22. Demon Hunting
23. Truth
24. Satan`s Spawn
25. Time, Stop
Качество: HDTVRip
Формат: MP4
Видео кодек: XviD
Аудио кодек: AAC
Видео: XviD, 640x360px, 16:9, ~768kbps, ~23.9fps
Аудио: AAC, ~128kbps, 48kHz, 2ch (RUS)

ТХ/MediaInfo

ОбщееФормат                           : MPEG-4Профиль формата                  : Base Media / Version 2Идентификатор кодека             : mp42Размер файла                     : 155 МбайтПродолжительность                : 24 м.Общий поток                      : 895 Кбит/секВидеоИдентификатор                    : 201Формат                           : MPEG-4 VisualПрофиль формата                  : Advanced Simple@L5Параметр BVOP формата            : НетПараметр QPel формата            : НетПараметр GMC формата             : Без точки переходаПараметр матрицы формата         : Default (H.263)Идентификатор кодека             : 20Продолжительность                : 24 м.Вид битрейта                     : ПеременныйБитрейт                          : 768 Кбит/секМаксимальный битрейт             : 7577 Кбит/секШирина                           : 640 пикс.Высота                           : 360 пикс.Соотношение сторон               : 16:9Режим частоты кадров             : ПеременныйЧастота кадров                   : 23,744 кадр/секЧастота кадров в оригинале       : 23,976 кадр/секМинимальная частота кадров       : 3,425 кадр/секМаксимальная частота кадров      : 23,976 кадр/секЦветовое пространство            : YUVПодвыборка цветности             : 4:2:0Битовая глубина                  : 8 битТип развёртки                    : ПрогрессивнаяМетод сжатия                     : С потерямиБит/(Пиксели*Кадры)              : 0.140Размер потока                    : 133 Мбайт (86%)Библиотека кодирования           : XviD 1.2.1 (UTC 2008-12-04)АудиоИдентификатор                    : 101Формат                           : AACФормат/Информация                : Advanced Audio CodecПрофиль формата                  : LCИдентификатор кодека             : 40Продолжительность                : 24 м.Вид битрейта                     : ПеременныйБитрейт                          : 124 Кбит/секМаксимальный битрейт             : 132 Кбит/секКаналы                           : 2 каналаРасположение каналов             : Front: L RЧастота                          : 48,0 КГцМетод сжатия                     : С потерямиРазмер потока                    : 21,6 Мбайт (14%)

Скриншоты

.:. Мои релизы для Nokia 5530-5228 .:.

Для скачки контента: [Установить программу-клиент] и кликнуть по - СкачатьБезопасность: клиент проверен АВ Касперского

[asmlocator.ru].t509465.torrent 
Торрент: Зарегистрирован [ 2018-03-04 23:45 ] · 7BFCACB9AC3CE4C0986E230B2C119CA6218062B0

Скачать .torrent

Скачать

7 KB

Статус: проверено
Скачан: 0 раз
Размер: 3,79 GB
terms.php
[Профиль] [ЛС]
Показать сообщения:    
Ответить на тему

Текущее время: 19-Сен 15:44

Часовой пояс: UTC ± 0



Вы не можете начинать темы
Вы не можете отвечать на сообщения
Вы не можете редактировать свои сообщения
Вы не можете удалять свои сообщения
Вы не можете голосовать в опросах
Вы не можете прикреплять файлы к сообщениям
Вы можете скачивать файлы