(Rock, Pop, New Wave, Pop Rock) [LP] [24/96] Geier Sturzflug – Heiße Zeiten... - 1983 (Club Edition), FLAC (tracks)

Ответить на тему
Статистика раздачи
Размер:  731 MB   |    Зарегистрирован:  8 месяцев 4 дня   |    Скачан:  0 раз

Полного источника не было: Никогда

 
   
 
 
Автор Сообщение

star21 ®

Пол: Женский

Стаж: 2 года 11 месяцев

Сообщений: 552946

Откуда: Екатеринбург

Создавать темы 13-Фев-2018 12:30

[Цитировать]

Geier Sturzflug – Heiße Zeiten... Жанр: Rock, Pop, New Wave, Pop Rock
Носитель: LP
Год выпуска: 1983
Лейбл: Ariola – 46 753 0
Страна-производитель: Germany
Аудио кодек: FLAC
Тип рипа: tracks
Формат записи: 24/96
Формат раздачи: 24/96
Продолжительность: 00:35:15Источник оцифровки: alexpika
Код класса состояния винила: NM
Устройство воспроизведения: Profi HiFi Sound
Головка звукоснимателя: Audio Technica
Предварительный усилитель: Marantz
АЦП: Realtek HD
Программа-оцифровщик: WaveEditor
Обработка: регулировка уровня громкости программой iZotope RX3Треклист:
A1. Besuchen Sie Europa (Solange es noch steht) - 2.35
A2. Karibische Gefuehle - 5.07
A3. Seemannslied - 2.53
A4. Walkmanfan - 1.55
A5. Der moderne Mensch - 2.52
A6. Halli Galli - 2.19B1. Des kleinen Mannes Sonnenschein - 2.30
B2. Bruttosozialprodukt - 3.00
B3. Korken auf dem Wasser - 3.33
B4. Harte Zeiten - 3.47
B5. Halt mich fest - 4.16

DR Log

foobar2000 1.1.10 / Dynamic Range Meter 1.1.1
log date: 2018-02-13 13:24:09--------------------------------------------------------------------------------
Analyzed: ? / ?
--------------------------------------------------------------------------------DR Peak RMS Duration Track
--------------------------------------------------------------------------------
DR13 -0.26 dB -14.71 dB 2:38 ?-A1. Besuchen Sie Europa (Solange es noch steht)
DR17 -0.26 dB -19.52 dB 5:10 ?-A2. Karibische Gefuehle
DR13 -0.26 dB -16.09 dB 2:55 ?-A3. Seemannslied
DR13 -0.26 dB -14.03 dB 1:57 ?-A4. Walkmanfan
DR15 -0.26 dB -17.55 dB 2:53 ?-A5. Der moderne Mensch
DR12 -0.26 dB -17.82 dB 2:20 ?-A6. Halli Galli
DR13 -0.26 dB -15.29 dB 2:32 ?-B1. Des kleinen Mannes Sonnenschein
DR14 -0.26 dB -17.07 dB 3:02 ?-B2. Bruttosozialprodukt
DR15 -0.26 dB -18.15 dB 3:36 ?-B3. Korken auf dem Wasser
DR16 -0.26 dB -18.26 dB 3:50 ?-B4. Harte Zeiten
DR13 -0.26 dB -18.22 dB 4:22 ?-B5. Halt mich fest
--------------------------------------------------------------------------------Number of tracks: 11
Official DR value: DR14Samplerate: 96000 Hz
Channels: 2
Bits per sample: 24
Bitrate: 2891 kbps
Codec: FLAC
================================================================================

Credits & Notes

Phonographic Copyright (p) – Ariola Eurodisc GmbHCredits
Producer – Peter Kent
Written-By – Geratsch* (tracks: B2), Geier Sturzflug (tracks: A1 to B1, B3 to B5), Baierle* (tracks: B2)Notes
℗ 1983 Ariola Eurodisc GmbHBarcode and Other Identifiers
Rights Society: GEMA/STEMRA
Matrix / Runout (Center Label A): S 205 555 A
Matrix / Runout (Center Label B): S 205 555 B
Matrix / Runout (Runout A): 205555 A-2 / 83 S III II
Matrix / Runout (Runout B): 205555 B-2 / 83 S III III

Спектр. АЧХ. Уровень записи

Раздаю до первых 5-ти скачавших, на раздачи не возвращаюсь...

Для скачки контента: [Установить программу-клиент] и кликнуть по - СкачатьБезопасность: клиент проверен АВ Касперского

[asmlocator.ru].t503622.torrent 
Торрент: Зарегистрирован [ 2018-02-13 12:30 ] · 4D725D066A04E8EED4E7D8A206CCA4DE139A1605

Скачать .torrent

Скачать

16 KB

Статус: проверено
Скачан: 0 раз
Размер: 731 MB
terms.php
[Профиль] [ЛС]
Показать сообщения:    
Ответить на тему

Текущее время: 17-Окт 19:28

Часовой пояс: UTC ± 0



Вы не можете начинать темы
Вы не можете отвечать на сообщения
Вы не можете редактировать свои сообщения
Вы не можете удалять свои сообщения
Вы не можете голосовать в опросах
Вы не можете прикреплять файлы к сообщениям
Вы можете скачивать файлы