(Pop) [LP] [24/96] VA - Italian Pop Music - 1986, FLAC (image+.cue), lossless

Ответить на тему
Статистика раздачи
Размер:  896 MB   |    Зарегистрирован:  11 дней   |    Скачан:  0 раз

Полного источника не было: 9 дней

 
   
 
 
Автор Сообщение

star21 ®

Пол: Не указан

Стаж: 2 года 3 месяца

Сообщений: 354135

Создавать темы 13-Фев-2018 12:30

[Цитировать]

Various Artists
"Italian Pop Music" - 1986 Жанр: Pop
Носитель: LP
Год выпуска: 1986
Лейбл: Балкантон – ВТА 11946
Страна-производитель: Bulgaria
Аудио кодек: FLAC
Тип рипа: image+.cue
Формат записи: 24/192
Формат раздачи: 24/96
Продолжительность: 00:43:24
Тэги в .cue: прописаны
Источник оцифровки: автором раздачи
Код класса состояния винила: VG
Устройство воспроизведения: Электроника ЭП 017С
Головка звукоснимателя: ГЗМ – 028 (Корвет)
Предварительный усилитель: AMX - 100 (LTO®)
АЦП: Juli@
Программа-оцифровщик: Adobe Audition CS6 5.0.2
Обработка: без обработки

Трэклист:

Side A:
01. Claudio Baglioni - Un Giorno nuovo
02. Lucio Battisti - E Penso A Te
03. Edoardo Bennato - L'isola Che Non C'e
04. Lucio Battisti - Ancora Tu
05. Fabrizio De Andre - Creuza DE MaSide B:
06. Claudio Baglioni - La Vita Adesso
07. Edoardo Bennato - Sono Solo Canzonette
08. Lucio Dalla - Solo
09. Fabrizio De Andre - Sinan Capudan Pascia

Конверт, аклейки:


Уровень громкости, спектр, АЧХ:

Dynamic Range Meter (DR14):

foobar2000 1.1.3 / Dynamic Range Meter 1.1.1log date: 2018-02-13 14:05:40--------------------------------------------------------------------------------Analyzed: Various Artists / Italian Pop Music--------------------------------------------------------------------------------DR         Peak         RMS     Duration Track--------------------------------------------------------------------------------DR14      -0.15 dB   -16.91 dB      4:32 ?-01. Claudio Baglioni - Un Giorno nuovoDR13      -0.47 dB   -19.38 dB      4:20 ?-02. Lucio Battisti - E Penso A TeDR13      -1.47 dB   -18.59 dB      4:04 ?-03. Edoardo Bennato - L'isola Che Non C'eDR15      -0.26 dB   -18.06 dB      4:39 ?-04. Lucio Battisti - Ancora TuDR13      -0.79 dB   -16.69 dB      4:16 ?-05. Fabrizio De Andre - Creuza DE MaDR14      -1.09 dB   -18.68 dB      5:30 ?-06. Claudio Baglioni - La Vita AdessoDR14      -0.15 dB   -16.30 dB      5:04 ?-07. Edoardo Bennato - Sono Solo CanzonetteDR13      -2.08 dB   -19.60 dB      5:21 ?-08. Lucio Dalla - SoloDR15      -0.15 dB   -18.37 dB      5:37 ?-09. Fabrizio De Andre - Sinan Capudan Pascia--------------------------------------------------------------------------------Number of tracks:  9Official DR value: DR14Samplerate:        96000 HzChannels:          2Bits per sample:   24Bitrate:           2847 kbpsCodec:             FLAC================================================================================

.cue txt:

REM GENRE "Pop, Europop"REM DATE "1986"REM COMMENT "Vinyl, LP, Compilation, Stereo, Балкантон – BTA 11946, Bulgaria"TITLE "Italian Pop Music"PERFORMER "Various Artists"FILE "01. Side A.flac" WAVE  TRACK 01 AUDIO    TITLE "01. Un Giorno nuovo"    PERFORMER "Claudio Baglioni"    INDEX 01 00:00:00  TRACK 02 AUDIO    TITLE "02. E Penso A Te"    PERFORMER "Lucio Battisti"    INDEX 01 04:32:34  TRACK 03 AUDIO    TITLE "03. L'isola Che Non C'e"    PERFORMER "Edoardo Bennato"    INDEX 01 08:52:36  TRACK 04 AUDIO    TITLE "04. Ancora Tu"    PERFORMER "Lucio Battisti"    INDEX 01 12:56:07  TRACK 05 AUDIO    TITLE "05. Creuza DE Ma"    PERFORMER "Fabrizio De Andre"    INDEX 01 17:35:22FILE "02. Side B.flac" WAVE  TRACK 06 AUDIO    TITLE "06. La Vita Adesso"    PERFORMER "Claudio Baglioni"    INDEX 01 00:00:00  TRACK 07 AUDIO    TITLE "07. Sono Solo Canzonette"    PERFORMER "Edoardo Bennato"    INDEX 01 05:30:11  TRACK 08 AUDIO    TITLE "08. Solo"    PERFORMER "Lucio Dalla"    INDEX 01 10:34:28  TRACK 09 AUDIO    TITLE "09. Sinan Capudan Pascia"    PERFORMER "Fabrizio De Andre"    INDEX 01 15:55:21

Для скачки контента: [Установить программу-клиент] и кликнуть по - Скачать

[asmlocator.ru].t503613.torrent 
Торрент: Зарегистрирован [ 2018-02-13 12:30 ] · 7E36B68997E1A4D1E01BD7C2942A9A48E1A0B23E

Скачать .torrent

Скачать

18 KB

Статус: проверено
Скачан: 0 раз
Размер: 896 MB
terms.php
[Профиль] [ЛС]
Показать сообщения:    
Ответить на тему

Текущее время: 24-Фев 21:32

Часовой пояс: UTC ± 0



Вы не можете начинать темы
Вы не можете отвечать на сообщения
Вы не можете редактировать свои сообщения
Вы не можете удалять свои сообщения
Вы не можете голосовать в опросах
Вы не можете прикреплять файлы к сообщениям
Вы можете скачивать файлы