Козёл отпущения / The Scapegoat (Чарльз Старридж / Charles Sturridge) [2012, Великобритания, драма, HDTV 1080i] DVO (НТВ+) + Original Eng

Ответить на тему
Статистика раздачи
Размер:  5,62 GB   |    Зарегистрирован:  11 дней   |    Скачан:  0 раз

Полного источника не было: Никогда

 
   
 
 
Автор Сообщение

star21 ®

Пол: Не указан

Стаж: 2 года 3 месяца

Сообщений: 354135

Создавать темы 13-Фев-2018 12:30

[Цитировать]

Козёл отпущения / The Scapegoat Страна: Великобритания
Жанр: драма
Год выпуска: 2012
Продолжительность: 01:43:02Перевод: Профессиональный (двухголосый закадровый) НТВ+
Субтитры: нет
Оригинальная аудиодорожка: английскийРежиссер: Чарльз Старридж / Charles SturridgeВ ролях: Мэттью Риз, Айлин Эткинс, Энтон Лессер, Джоди Мэй, Фиби Николлс, Элис Орр-Юинг, Эндрю Скотт, Шеридан Смит, Сильви Тестю, Пип ТорренсОписание: История разворачивается в 1952 году, когда Англия готовится к коронации. «Козёл отпущения» рассказывает историю двух очень разных людей, у которых есть кое-что общее — лицо.[imdb]http://www.imdb.com/title/tt2084977[/imdb] Сэмпл: http://sendfile.su/1398651Тип релиза: HDTV 1080i
Контейнер: TSВидео: AVC, 1920х1080, 7033 Kbps, 25.000 fps
Аудио: русский, MP2, 2 ch, 192 Kbps, 48.0 KHz
Аудио 2: английский, MP2, 2 ch, 192 Kbps, 48.0 KHzRip by

MediaInfo

General
ID : 1 (0x1)
Complete name : W:\Рипер 1\Козёл отпущения 1080i (2012).ts
Format : MPEG-TS
File size : 5.62 GiB
Duration : 1h 43mn
Overall bit rate mode : Variable
Overall bit rate : 7 806 KbpsVideo
ID : 1210 (0x4BA)
Menu ID : 142 (0x8E)
Format : AVC
Format/Info : Advanced Video Codec
Format profile : High@L4.0
Format settings, CABAC : Yes
Format settings, ReFrames : 4 frames
Format settings, GOP : M=4, N=28
Codec ID : 27
Duration : 1h 43mn
Bit rate : 7 032 Kbps
Width : 1 920 pixels
Height : 1 080 pixels
Display aspect ratio : 16:9
Frame rate : 25.000 fps
Standard : Component
Color space : YUV
Chroma subsampling : 4:2:0
Bit depth : 8 bits
Scan type : Interlaced
Scan order : Top Field First
Bits/(Pixel*Frame) : 0.136
Stream size : 5.06 GiB (90%)
Color primaries : BT.709
Transfer characteristics : BT.709
Matrix coefficients : BT.709Audio #1
ID : 1211 (0x4BB)
Menu ID : 142 (0x8E)
Format : MPEG Audio
Format version : Version 1
Format profile : Layer 2
Codec ID : 3
Duration : 1h 43mn
Bit rate mode : Constant
Bit rate : 192 Kbps
Channel(s) : 2 channels
Sampling rate : 48.0 KHz
Compression mode : Lossy
Stream size : 141 MiB (2%)
Language : RussianAudio #2
ID : 1212 (0x4BC)
Menu ID : 142 (0x8E)
Format : MPEG Audio
Format version : Version 1
Format profile : Layer 2
Codec ID : 3
Duration : 1h 43mn
Bit rate mode : Constant
Bit rate : 192 Kbps
Channel(s) : 2 channels
Sampling rate : 48.0 KHz
Compression mode : Lossy
Stream size : 141 MiB (2%)
Language : English

Скриншоты

Для скачки контента: [Установить программу-клиент] и кликнуть по - Скачать

[asmlocator.ru].t503584.torrent 
Торрент: Зарегистрирован [ 2018-02-13 12:30 ] · 494B34DBC82A9F84550442FF323F50625A5FFC6B

Скачать .torrent

Скачать

29 KB

Статус: проверено
Скачан: 0 раз
Размер: 5,62 GB
terms.php
[Профиль] [ЛС]
Показать сообщения:    
Ответить на тему

Текущее время: 24-Фев 21:39

Часовой пояс: UTC ± 0



Вы не можете начинать темы
Вы не можете отвечать на сообщения
Вы не можете редактировать свои сообщения
Вы не можете удалять свои сообщения
Вы не можете голосовать в опросах
Вы не можете прикреплять файлы к сообщениям
Вы можете скачивать файлы