Тринитротолуол Джексон / Т.Н.Т Джексон / TNT Jackson (Сирио Х. Сантьяго / Cirio H. Santiago) [1974, США, Филиппины, боевик, блэксплотейшн, DVDRip-AVC] Sub Rus (Фэнтези Рум) + Original Eng

Ответить на тему
Статистика раздачи
Размер:  1,09 GB   |    Зарегистрирован:  3 месяца 14 дней   |    Скачан:  0 раз

Полного источника не было: 2 месяца 7 дней

 
   
 
 
Автор Сообщение

star21 ®

Пол: Не указан

Стаж: 2 года 6 месяцев

Сообщений: 519076

Создавать темы 13-Фев-2018 12:30

[Цитировать]

Тринитротолуол Джексон / Т.Н.Т Джексон / TNT Jackson Страна: США, Филиппины
Жанр: боевик, блэксплотейшн
Год выпуска: 1974
Продолжительность: 01:11:55Перевод: Субтитры Фэнтези Рум
Субтитры: русские
Оригинальная аудиодорожка: английскийРежиссер: Сирио Х. Сантьяго / Cirio H. SantiagoВ ролях: Дженни Белл, Чикито, Стэн Шоу, Макс Альварадо, Пэт Андерсон, Кен Меткалф, Лео МартинесОписание: Диана Джексон по кличке Т.Н.Т.(Тринитротолуол), в совершенстве владеющая боевыми искусствами, прибывает в Гонконг на розыски пропавшего брата. Розыски приводят в логово банды, с которой Диана вступает в войну.Доп. информация: Доводилось ли вам слышать песню Ляписа Трубецкого - "Пастушок"? Там поется - "Сплелись усы и коса, и еще кое-где волоса". Именно так в этом фильме сплелись продюсерская хватка Роджера Кормана с режиссерским талантом Сирио Сантьяго. Культовая классика Роджера Кормана под номером двадцать шесть.Сэмпл: https://yadi.sk/i/iN5dh_-V3S67ZhКачество видео: DVDRip
Формат видео: MKVВидео: AVC, 712х476@843х476, 16:9, 23.976fps, 1981kb/s
Аудио: AC-3, 48.0kHz, 192kb/s, 2 channels
Формат субтитров: softsub (SRT)

MediaInfo

Общее
Уникальный идентификатор : 247450392951215087325893667737833976010 (0xBA29364FB1517F5EA1583EEED62630CA)
Полное имя : D:\Downloads\TNT Jackson\TNT.Jackson.1974.DVDRip.x264-CG.mkv
Формат : Matroska
Версия формата : Version 2
Размер файла : 1,09 Гбайт
Продолжительность : 1 ч. 11 м.
Общий поток : 2174 Кбит/сек
Дата кодирования : UTC 2018-02-12 18:19:57
Программа кодирования : mkvmerge v4.1.1 ('Bouncin' Back') сборка от Jul 3 2010 22:54:08
Библиотека кодирования : libebml v1.0.0 + libmatroska v1.0.0Видео
Идентификатор : 1
Формат : AVC
Формат/Информация : Advanced Video Codec
Профиль формата : High@L4.1
Параметр CABAC формата : Да
Параметр RefFrames формата : 16 кадров
Идентификатор кодека : V_MPEG4/ISO/AVC
Продолжительность : 1 ч. 11 м.
Битрейт : 1981 Кбит/сек
Ширина : 712 пикселей
Высота : 476 пикселей
Соотношение сторон : 16:9
Соотношение сторон в оригинале : 16:9
Режим частоты кадров : Постоянный
Частота кадров : 23,976 (24000/1001) кадра/сек
Цветовое пространство : YUV
Субдискретизация насыщенности : 4:2:0
Битовая глубина : 8 бит
Тип развёртки : Прогрессивная
Бит/(Пиксели*Кадры) : 0.244
Размер потока : 997 Мбайт (89%)
Библиотека кодирования : x264 core 120 r2164 da19765
Настройки программы : cabac=1 / ref=16 / deblock=1:-2:-1 / analyse=0x3:0x133 / me=umh / subme=10 / psy=1 / psy_rd=1.20:0.15 / mixed_ref=1 / me_range=24 / chroma_me=1 / trellis=2 / 8x8dct=1 / cqm=0 / deadzone=21,11 / fast_pskip=0 / chroma_qp_offset=-3 / threads=6 / sliced_threads=0 / nr=0 / decimate=0 / interlaced=0 / bluray_compat=0 / constrained_intra=0 / bframes=8 / b_pyramid=2 / b_adapt=2 / b_bias=0 / direct=3 / weightb=1 / open_gop=0 / weightp=2 / keyint=250 / keyint_min=23 / scenecut=40 / intra_refresh=0 / rc_lookahead=60 / rc=2pass / mbtree=1 / bitrate=1981 / ratetol=1.0 / qcomp=0.60 / qpmin=0 / qpmax=69 / qpstep=4 / cplxblur=20.0 / qblur=0.5 / ip_ratio=1.40 / aq=1:0.80
Язык : English
Default : Да
Forced : НетАудио
Идентификатор : 2
Формат : AC-3
Формат/Информация : Audio Coding 3
Параметр Endianness формата : Big
Режим смешивания : Header stripping
Идентификатор кодека : A_AC3
Продолжительность : 1 ч. 11 м.
Вид битрейта : Постоянный
Битрейт : 192 Кбит/сек
Каналы : 2 канала
Расположение каналов : Front: L R
Частота : 48,0 КГц
Частота кадров : 31,250 кадров/сек (1536 SPF)
Битовая глубина : 16 бит
Метод сжатия : С потерями
Размер потока : 98,8 Мбайт (9%)
Язык : English
ServiceKind/String : Complete Main
Default : Да
Forced : НетТекст
Идентификатор : 3
Формат : UTF-8
Идентификатор кодека : S_TEXT/UTF8
Идентификатор кодека/Информация : UTF-8 Plain Text
Default : Да
Forced : НетМеню
00:00:00.000 : en:Chapter 1
00:03:45.500 : en:Chapter 2
00:11:12.000 : en:Chapter 3
00:16:38.367 : en:Chapter 4
00:24:49.867 : en:Chapter 5
00:32:28.933 : en:Chapter 6
00:39:33.933 : en:Chapter 7
00:48:33.433 : en:Chapter 8
00:53:05.966 : en:Chapter 9
00:57:17.966 : en:Chapter 10
01:02:20.966 : en:Chapter 11
01:07:31.966 : en:Chapter 12

Скриншот c названием фильма

Скриншоты

Пример субтитров

1
00:02:24,222 --> 00:02:26,481
Эй, брат,
как дела?2
00:02:26,482 --> 00:02:28,844
Нормально.3
00:02:28,845 --> 00:02:31,973
У тебя есть то,
что принадлежит мне.4
00:02:31,974 --> 00:02:33,538
И я бы хотел вернуть это.5
00:02:45,846 --> 00:02:49,045
Смотри, что выпрыгнуло у тебя
из кармана, брат.6
00:02:49,046 --> 00:02:51,165
Похоже на чистейшее дерьмо.7
00:02:51,166 --> 00:02:54,227
Оставь себе.8
00:02:57,600 --> 00:03:00,729
Никогда не трогай меня, мужик.9
00:04:23,790 --> 00:04:24,902
Вы говорите по-английски?10
00:04:24,903 --> 00:04:27,440
Да, мэм.11
00:04:27,441 --> 00:04:30,744
Отвезите меня к приюту Джо.12
00:04:30,745 --> 00:04:33,561
Такси не ездит к желтым.13
00:04:33,561 --> 00:04:35,681
Это земля гонконгцев..14
00:04:35,682 --> 00:04:37,767
Только преступники
и бандиты живут там.15
00:04:37,768 --> 00:04:40,791
Даже полиция боится ехать туда.16
00:04:40,792 --> 00:04:42,635
Ну, я еду.
Вы отвезете меня?17
00:04:42,636 --> 00:04:44,825
Отвезу до границы, хорошо?18
00:04:44,825 --> 00:04:46,390
Хорошо, едем.19
00:05:03,880 --> 00:05:05,860
Я стану здесь.
Ехать дальше небезопасно.20
00:05:06,313 --> 00:05:08,190
Куда мне идти?21
00:05:08,191 --> 00:05:10,868
Адрес, который вы ищете, там.22
00:05:10,869 --> 00:05:12,780
Спасибо.

Для скачки контента: [Установить программу-клиент] и кликнуть по - Скачать

[asmlocator.ru].t503583.torrent 
Торрент: Зарегистрирован [ 2018-02-13 12:30 ] · 2F52421BF9706F335FEF724ABB25A16442711B26

Скачать .torrent

Скачать

11 KB

Статус: проверено
Скачан: 0 раз
Размер: 1,09 GB
terms.php
[Профиль] [ЛС]
Показать сообщения:    
Ответить на тему

Текущее время: 28-Май 09:57

Часовой пояс: UTC ± 0



Вы не можете начинать темы
Вы не можете отвечать на сообщения
Вы не можете редактировать свои сообщения
Вы не можете удалять свои сообщения
Вы не можете голосовать в опросах
Вы не можете прикреплять файлы к сообщениям
Вы можете скачивать файлы