5 фильмов Паоло Джиоли (Паоло Джиоли / Paolo Gioli) [1986-2002, Италия, короткометражный, экспериментальный, DVDrip]

Ответить на тему
Статистика раздачи
Размер:  635 MB   |    Зарегистрирован:  3 месяца 14 дней   |    Скачан:  0 раз

Полного источника не было: 2 месяца 11 дней

 
   
 
 
Автор Сообщение

star21 ®

Пол: Не указан

Стаж: 2 года 6 месяцев

Сообщений: 519076

Создавать темы 13-Фев-2018 12:30

[Цитировать]

5 фильмов Паоло Джиоли (1986-2002) Piccolo film decomposto
Режиссер: Паоло Джиоли / Paolo Gioli
Год выпуска: 1986
Страна: Италия
Жанр: короткометражный, экспериментальный
Продолжительность: 00:17:05
Оригинальная аудиодорожка: отсутствует
В ролях: не указаныFilmfinish
Режиссер: Паоло Джиоли / Paolo Gioli
Год выпуска: 1986-89
Страна: Италия
Жанр: короткометражный, экспериментальный
Продолжительность: 00:12:27
Перевод: не требуется
В ролях: не указаныFilmarilyn
Режиссер: Паоло Джиоли / Paolo Gioli
Год выпуска: 1992
Страна: Италия
Жанр: короткометражный, экспериментальный
Продолжительность: 00:09:17
Перевод: не требуется
В ролях: Мерилин Монро (фото)Immagini travolte dalla ruota di Duchamp
Режиссер: Паоло Джиоли / Paolo Gioli
Год выпуска: 1994
Страна: Италия
Жанр: короткометражный, экспериментальный
Продолжительность: 00:12:47
Перевод: не требуетсяVolto telato
Режиссер: Паоло Джиоли / Paolo Gioli
Год выпуска: 2002
Страна: Италия
Жанр: короткометражный, экспериментальный
Продолжительность: 00:02:46
Перевод: не требуется
В ролях: не указаныОписание: Кинематограф упразднил движение – такой парадоксальный вывод можно сделать из фильмов Паоло Джиоли, который оказался верным последователем Зенона Элеата. Смена кадров – классические отпечатки фоторужья Жюля-Этьена Маре, карнографические зарисовки Эдварда Мейбриджа, «контрольки» Мерилин Монро, фотографии Марселя Дюшана и Энди Уорхола – и движение рождается из инерции нашего зрительного восприятия. Каждый кадр неподвижен, как зеноново копьё в каждое мгновение полёта. Но как только рождается фликер, – 18 кадров в секунду, 25 кадров в секунду – глазу кажется, что рождается движение.
Чтобы зритель проникся не только визуальными демонстрациями рефлексии о движении, Паоло Джиоли не забывает и об эротике движения, запечатлевая раздевающихся женщин, скабрезные картины Дюшана и различные кадры обсценного толка. Ампутанты запрыгивают на стул, женщина показывает стриптиз, лицо Энди Уорхола сливается в инопланетную кляксу, Мерилин Монро снимает последнее покрывало. Иллюзия движения прекрасна в фильмах Паоло Джиоли.

Технические характеристики видеофайлов

Piccolo film decomposto
Видео: XviD MPEG-4 at 1368 kbps, 0.18 bit/pixel, 640x480 (1.33:1) at 25 fps
Аудио: MPEG Layer 3 at 96.00 kbps avg, 2 ch, 32 kHz
Filmfinish
Видео: XviD build 63 at 1607 kbps, 0.29 bit/pixel, 640x480 (1.33:1) at 18 fps
Аудио 1: MPEG Layer 3 at 32.00 kbps avg, 2 ch, 48,0 kHz
Аудио 2 (музыка): MPEG Layer 3 at 135.75 kbps avg, 2 ch, 48,0 kHz
Filmarilyn
Видео: XviD build 63 at 1692 kbps, 0.22 bit/pixel, 640x480 (1.33:1) at 25 fps
Аудио 1: MPEG Layer 3 at 32.02 kbps avg, 2 ch, 48 kHz
Аудио 2 (музыка): MPEG Layer 3 at 134.95 kbps avg, 2 ch, 48,0 kHz
Immagini travolte dalla ruota di Duchamp
Видео: XviD build 63 at 1485 kbps, 0.27 bit/pixel, 640x480 (1.33:1) at 18 fps
Аудио: MPEG Layer 3 at 32.00 kbps avg, 2 ch, 48,0 kHz
Volto telato
Видео: XviD build 63 at 1405 kbps, 0.18 bit/pixel, 640x480 (1.33:1) at 25 fps
Аудио: MPEG Layer 3 at 96.00 kbps avg, 2 ch, 32 kHz

MediaInfo

Piccolo film decomposto
Формат : AVI
Формат/Информация : Audio Video Interleave
Размер файла : 180 Мбайт
Продолжительность : 17 м.
Общий поток : 1471 Кбит/сек
Программа кодирования : VirtualDubMod 1.5.4.1 (build 2178/release)
Библиотека кодирования : VirtualDubMod build 2178/releaseВидео
Идентификатор : 0
Формат : MPEG-4 Visual
Профиль формата : Advanced Simple@L5
Параметр BVOP формата : 1
Параметр QPel формата : Нет
Параметр GMC формата : Без точки перехода
Параметр матрицы формата : Default (H.263)
Режим смешивания : Сжатый битовый поток
Идентификатор кодека : XVID
Идентификатор кодека/Подсказка : XviD
Продолжительность : 17 м.
Битрейт : 1368 Кбит/сек
Ширина : 640 пикс.
Высота : 480 пикс.
Соотношение сторон : 4:3
Частота кадров : 25,000 кадр/сек
Цветовое пространство : YUV
Подвыборка цветности : 4:2:0
Битовая глубина : 8 бит
Тип развёртки : Прогрессивная
Метод сжатия : С потерями
Бит/(Пиксели*Кадры) : 0.178
Размер потока : 167 Мбайт (93%)
Библиотека кодирования : XviD 1.1.0 (UTC 2005-11-22)Аудио
Идентификатор : 1
Формат : MPEG Audio
Версия формата : Version 1
Профиль формата : Layer 3
Режим : Joint stereo
Расширение режима : MS Stereo
Идентификатор кодека : 55
Идентификатор кодека/Подсказка : MP3
Продолжительность : 17 м.
Вид битрейта : Постоянный
Битрейт : 96,0 Кбит/сек
Канал(ы) : 2 канала(ов)
Частота : 32,0 КГц
Метод сжатия : С потерями
Размер потока : 11,7 Мбайт (7%)
Выравнивание : Соединение по промежуткам
Продолжительность промежутка : 80 мс. (2,00 видеокадров)
Время предзагрузки промежутка : 504 ms
Библиотека кодирования : LAME3.97b
Настройки программы : -m j -V 4 -q 2 -lowpass 15.1 -b 96
Filmfinish
Формат : AVI
Формат/Информация : Audio Video Interleave
Размер файла : 160 Мбайт
Продолжительность : 12 м.
Общий поток : 1797 Кбит/сек
Программа кодирования : VirtualDubMod 1.5.10.2 (build 2540/release)
Библиотека кодирования : VirtualDubMod build 2540/releaseВидео
Идентификатор : 0
Формат : MPEG-4 Visual
Профиль формата : Advanced Simple@L5
Параметр BVOP формата : 2
Параметр QPel формата : Нет
Параметр GMC формата : Без точки перехода
Параметр матрицы формата : Default (H.263)
Идентификатор кодека : XVID
Идентификатор кодека/Подсказка : XviD
Продолжительность : 12 м.
Битрейт : 1610 Кбит/сек
Ширина : 640 пикс.
Высота : 480 пикс.
Соотношение сторон : 4:3
Частота кадров : 18,000 кадр/сек
Частота кадров в оригинале : 18,004 кадр/сек
Цветовое пространство : YUV
Подвыборка цветности : 4:2:0
Битовая глубина : 8 бит
Тип развёртки : Прогрессивная
Метод сжатия : С потерями
Бит/(Пиксели*Кадры) : 0.291
Размер потока : 143 Мбайт (90%)
Библиотека кодирования : XviD 63Аудио #1
Идентификатор : 1
Формат : MPEG Audio
Версия формата : Version 1
Профиль формата : Layer 3
Режим : Joint stereo
Расширение режима : MS Stereo
Идентификатор кодека : 55
Идентификатор кодека/Подсказка : MP3
Продолжительность : 12 м.
Вид битрейта : Переменный
Битрейт : 32,0 Кбит/сек
Номинальный битрейт : 128 Кбит/сек
Канал(ы) : 2 канала(ов)
Частота : 48,0 КГц
Метод сжатия : С потерями
Размер потока : 2,85 Мбайт (2%)
Выравнивание : Соединение по промежуткам
Продолжительность промежутка : 24 мс. (0,43 видеокадр)
Время предзагрузки промежутка : 576 ms
Библиотека кодирования : LAME3.90.
Настройки программы : -m j -V 4 -q 2 -lowpass 17.6 --abr 128Аудио #2
Идентификатор : 2
Формат : MPEG Audio
Версия формата : Version 1
Профиль формата : Layer 3
Режим : Joint stereo
Расширение режима : MS Stereo
Идентификатор кодека : 55
Идентификатор кодека/Подсказка : MP3
Продолжительность : 12 м.
Вид битрейта : Переменный
Битрейт : 136 Кбит/сек
Номинальный битрейт : 128 Кбит/сек
Канал(ы) : 2 канала(ов)
Частота : 48,0 КГц
Метод сжатия : С потерями
Размер потока : 12,1 Мбайт (8%)
Выравнивание : Соединение по промежуткам
Продолжительность промежутка : 24 мс. (0,43 видеокадр)
Время предзагрузки промежутка : 135 ms
Библиотека кодирования : LAME3.90.
Настройки программы : -m j -V 4 -q 2 -lowpass 17.6 --abr 128
Filmarilyn
Формат : AVI
Формат/Информация : Audio Video Interleave
Размер файла : 125 Мбайт
Продолжительность : 9 м. 17 с.
Общий поток : 1882 Кбит/сек
Программа кодирования : VirtualDubMod 1.5.10.2 (build 2540/release)
Библиотека кодирования : VirtualDubMod build 2540/releaseВидео
Идентификатор : 0
Формат : MPEG-4 Visual
Профиль формата : Advanced Simple@L5
Параметр BVOP формата : 2
Параметр QPel формата : Нет
Параметр GMC формата : Без точки перехода
Параметр матрицы формата : Default (H.263)
Идентификатор кодека : XVID
Идентификатор кодека/Подсказка : XviD
Продолжительность : 9 м. 17 с.
Битрейт : 1694 Кбит/сек
Ширина : 640 пикс.
Высота : 480 пикс.
Соотношение сторон : 4:3
Частота кадров : 25,000 кадр/сек
Цветовое пространство : YUV
Подвыборка цветности : 4:2:0
Битовая глубина : 8 бит
Тип развёртки : Прогрессивная
Метод сжатия : С потерями
Бит/(Пиксели*Кадры) : 0.221
Размер потока : 113 Мбайт (90%)
Библиотека кодирования : XviD 63Аудио #1
Идентификатор : 1
Формат : MPEG Audio
Версия формата : Version 1
Профиль формата : Layer 3
Режим : Joint stereo
Расширение режима : MS Stereo
Идентификатор кодека : 55
Идентификатор кодека/Подсказка : MP3
Продолжительность : 9 м. 16 с.
Вид битрейта : Переменный
Битрейт : 32,0 Кбит/сек
Номинальный битрейт : 128 Кбит/сек
Канал(ы) : 2 канала(ов)
Частота : 48,0 КГц
Метод сжатия : С потерями
Размер потока : 2,12 Мбайт (2%)
Выравнивание : Соединение по промежуткам
Продолжительность промежутка : 24 мс. (0,60 видеокадр)
Время предзагрузки промежутка : 575 ms
Библиотека кодирования : LAME3.90.
Настройки программы : -m j -V 4 -q 2 -lowpass 17.6 --abr 128Аудио #2
Идентификатор : 2
Формат : MPEG Audio
Версия формата : Version 1
Профиль формата : Layer 3
Режим : Joint stereo
Расширение режима : MS Stereo
Идентификатор кодека : 55
Идентификатор кодека/Подсказка : MP3
Продолжительность : 9 м. 16 с.
Вид битрейта : Переменный
Битрейт : 135 Кбит/сек
Номинальный битрейт : 128 Кбит/сек
Канал(ы) : 2 канала(ов)
Частота : 48,0 КГц
Метод сжатия : С потерями
Размер потока : 8,95 Мбайт (7%)
Выравнивание : Соединение по промежуткам
Продолжительность промежутка : 24 мс. (0,60 видеокадр)
Время предзагрузки промежутка : 136 ms
Библиотека кодирования : LAME3.90.
Настройки программы : -m j -V 4 -q 2 -lowpass 17.6 --abr 128
Immagini travolte dalla ruota di Duchamp
Формат : AVI
Формат/Информация : Audio Video Interleave
Размер файла : 140 Мбайт
Продолжительность : 12 м.
Общий поток : 1530 Кбит/сек
Программа кодирования : VirtualDubMod 1.5.10.2 (build 2540/release)
Библиотека кодирования : VirtualDubMod build 2540/releaseВидео
Идентификатор : 0
Формат : MPEG-4 Visual
Профиль формата : Advanced Simple@L5
Параметр BVOP формата : 2
Параметр QPel формата : Нет
Параметр GMC формата : Без точки перехода
Параметр матрицы формата : Default (H.263)
Идентификатор кодека : XVID
Идентификатор кодека/Подсказка : XviD
Продолжительность : 12 м.
Битрейт : 1486 Кбит/сек
Ширина : 640 пикс.
Высота : 480 пикс.
Соотношение сторон : 4:3
Частота кадров : 18,000 кадр/сек
Частота кадров в оригинале : 18,004 кадр/сек
Цветовое пространство : YUV
Подвыборка цветности : 4:2:0
Битовая глубина : 8 бит
Тип развёртки : Прогрессивная
Метод сжатия : С потерями
Бит/(Пиксели*Кадры) : 0.269
Размер потока : 136 Мбайт (97%)
Библиотека кодирования : XviD 63Аудио
Идентификатор : 1
Формат : MPEG Audio
Версия формата : Version 1
Профиль формата : Layer 3
Режим : Joint stereo
Расширение режима : MS Stereo
Идентификатор кодека : 55
Идентификатор кодека/Подсказка : MP3
Продолжительность : 12 м.
Вид битрейта : Переменный
Битрейт : 32,0 Кбит/сек
Номинальный битрейт : 128 Кбит/сек
Канал(ы) : 2 канала(ов)
Частота : 48,0 КГц
Метод сжатия : С потерями
Размер потока : 2,92 Мбайт (2%)
Выравнивание : Соединение по промежуткам
Продолжительность промежутка : 24 мс. (0,43 видеокадр)
Время предзагрузки промежутка : 576 ms
Библиотека кодирования : LAME3.90.
Настройки программы : -m j -V 4 -q 2 -lowpass 17.6 --abr 128
Volto telato
Формат : AVI
Формат/Информация : Audio Video Interleave
Размер файла : 29,9 Мбайт
Продолжительность : 2 м. 46 с.
Общий поток : 1508 Кбит/сек
Программа кодирования : VirtualDubMod 1.5.4.1 (build 2178/release)
Библиотека кодирования : VirtualDubMod build 2178/releaseВидео
Идентификатор : 0
Формат : MPEG-4 Visual
Профиль формата : Advanced Simple@L5
Параметр BVOP формата : 1
Параметр QPel формата : Нет
Параметр GMC формата : Без точки перехода
Параметр матрицы формата : Default (H.263)
Режим смешивания : Сжатый битовый поток
Идентификатор кодека : XVID
Идентификатор кодека/Подсказка : XviD
Продолжительность : 2 м. 46 с.
Битрейт : 1405 Кбит/сек
Ширина : 640 пикс.
Высота : 480 пикс.
Соотношение сторон : 4:3
Частота кадров : 25,000 кадр/сек
Цветовое пространство : YUV
Подвыборка цветности : 4:2:0
Битовая глубина : 8 бит
Тип развёртки : Прогрессивная
Метод сжатия : С потерями
Бит/(Пиксели*Кадры) : 0.183
Размер потока : 27,8 Мбайт (93%)
Библиотека кодирования : XviD 1.1.0 (UTC 2005-11-22)Аудио
Идентификатор : 1
Формат : MPEG Audio
Версия формата : Version 1
Профиль формата : Layer 3
Режим : Joint stereo
Расширение режима : MS Stereo
Идентификатор кодека : 55
Идентификатор кодека/Подсказка : MP3
Продолжительность : 2 м. 44 с.
Вид битрейта : Постоянный
Битрейт : 96,0 Кбит/сек
Канал(ы) : 2 канала(ов)
Частота : 32,0 КГц
Метод сжатия : С потерями
Размер потока : 1,88 Мбайт (6%)
Выравнивание : Соединение по промежуткам
Продолжительность промежутка : 81 мс. (2,02 видеокадров)
Время предзагрузки промежутка : 504 ms
Библиотека кодирования : LAME3.97b
Настройки программы : -m j -V 4 -q 2 -lowpass 15.1 -b 96

Сэмплы

Piccolo film decomposto
http://multi-up.com/1187008Filmfinish
http://multi-up.com/1187010Filmarilyn
http://multi-up.com/1187009Immagini travolte dalla ruota di Duchamp
http://multi-up.com/1187011Volto telato
http://multi-up.com/1187012

Скриншоты c названием фильма

Piccolo film decomposto
Filmfinish
Filmarilyn
Immagini travolte dalla ruota di Duchamp
Volto telato

Скриншоты

Piccolo film decomposto
Filmfinish
Filmarilyn
Immagini travolte dalla ruota di Duchamp
Volto telato
Доп. информация:
Предупреждение!
В некоторых фильмах присутствует очень быстрая смена кадров, которая может привести к расстройствам зрения и, возможно, к эпилептическому припадку. Если вы склонны к упомянутым состояниям тела, просьба воздержаться от просмотра.

Для скачки контента: [Установить программу-клиент] и кликнуть по - Скачать

[asmlocator.ru].t503580.torrent 
Торрент: Зарегистрирован [ 2018-02-13 12:30 ] · A8D7050DAC2D5CE72B2B6D1A5C3B3FDFDC0EFABA

Скачать .torrent

Скачать

13 KB

Статус: проверено
Скачан: 0 раз
Размер: 635 MB
terms.php
[Профиль] [ЛС]
Показать сообщения:    
Ответить на тему

Текущее время: 28-Май 05:26

Часовой пояс: UTC ± 0



Вы не можете начинать темы
Вы не можете отвечать на сообщения
Вы не можете редактировать свои сообщения
Вы не можете удалять свои сообщения
Вы не можете голосовать в опросах
Вы не можете прикреплять файлы к сообщениям
Вы можете скачивать файлы