Steve Hackett - Wuthering Nights: Live in Birmingham [2018, Rock, Prog Rock, Art Rock, BDRip, 1080p]

Ответить на тему
Статистика раздачи
Размер:  11,44 GB   |    Зарегистрирован:  3 месяца 15 дней   |    Скачан:  0 раз

Полного источника не было: 3 месяца 3 дня

 
   
 
 
Автор Сообщение

star21 ®

Пол: Не указан

Стаж: 2 года 6 месяцев

Сообщений: 519076

Создавать темы 12-Фев-2018 23:40

[Цитировать]

Steve Hackett - Wuthering Nights: Live in Birmingham Жанр: Rock, Prog Rock, Art Rock
Продолжительность: 02:27:04
Год выпуска: 2018
Состав: Steve Hackett - Guitar, Vocals; Amanda Lehmann - Guitar, Vocals; Nick Beggs - Bass, Twelve-String Guitar, Vocals, Variax Guitar; Gary O'Toole - Drums, Percussion, Vocals; John Hackett - Flute; Roger King - Keyboards; Rob Townsend - Saxophone, Woodwind, Percussion, Vocals, Keyboards, Pedals Bass; Nad Sylvan - Vocals, TambourineТреклист:
1. Every Day
2. El Niño
3. The Steppes
4. In the Skeleton Gallery
5. Behind the Smoke
6. Serpentine Song
7. Rise Again
8. Shadow of the Hierophant
9. Eleventh Earl of Mar
10. One for the Vine
11. Blood on the Rooftops
12. In That Quiet Earth
13. Afterglow
14. Dance on a Volcano
15. Inside and Out
16. Firth of Fifth
17. The Musical Box
18. Los EndosКачество: BDRip
Разрешение видео/развертка: 1080p
Контейнер: MKV
Видео кодек: H.264
Аудио кодек: DTS, FLAC
Видео: AVC, 1920x1080 (16:9), 23.976 fps, 8 000 Kbps
Аудио#1: DTS, 48.0 KHz, 6 ch, 1 510 Kbps
Аудио#2: FLAC, 48.0 KHz, 2 ch, 1 627 kbps

MediaInfo / x264Log

x264Log

--[Information] [09.02.2018 0:40:41] Standard error stream---[Information] [09.02.2018 0:41:21] raw [info]: 1920x1080p 1:1 @ 24000/1001 fps (cfr)---[Information] [09.02.2018 0:41:21] x264 [info]: using SAR=1/1---[Information] [09.02.2018 0:41:22] x264 [info]: using cpu capabilities: MMX2 SSE2Fast SSSE3 SSE4.2 AVX---[Information] [09.02.2018 0:41:22] x264 [info]: profile Main, level 4.1---[Information] [09.02.2018 4:48:56] x264 [info]: frame I:2798  Avg QP:12.43  size:198513---[Information] [09.02.2018 4:48:56] x264 [info]: frame P:58311 Avg QP:15.74  size: 75867---[Information] [09.02.2018 4:48:56] x264 [info]: frame B:150465 Avg QP:17.16  size: 25676---[Information] [09.02.2018 4:48:56] x264 [info]: consecutive B-frames:  3.4%  4.4%  6.4% 80.6%  3.6%  1.1%  0.2%  0.3%  0.0%---[Information] [09.02.2018 4:48:56] x264 [info]: mb I  I16..4: 47.0%  0.0% 53.0%---[Information] [09.02.2018 4:48:56] x264 [info]: mb P  I16..4: 50.1%  0.0%  0.0%  P16..4: 46.5%  0.0%  0.0%  0.0%  0.0%    skip: 3.5%---[Information] [09.02.2018 4:48:56] x264 [info]: mb B  I16..4:  9.0%  0.0%  0.0%  B16..8: 34.8%  0.0%  0.0%  direct:23.8%  skip:32.4%  L0:38.6% L1:42.2% BI:19.2%---[Information] [09.02.2018 4:48:56] x264 [info]: final ratefactor: 17.48---[Information] [09.02.2018 4:48:56] x264 [info]: direct mvs  spatial:100.0% temporal:0.0%---[Information] [09.02.2018 4:48:56] x264 [info]: coded y,uvDC,uvAC intra: 33.9% 73.3% 39.7% inter: 18.9% 38.6% 3.2%---[Information] [09.02.2018 4:48:56] x264 [info]: i16 v,h,dc,p: 49% 24% 21%  7%---[Information] [09.02.2018 4:48:56] x264 [info]: i4 v,h,dc,ddl,ddr,vr,hd,vl,hu: 26% 24% 14%  6%  6%  6%  6%  5%  6%---[Information] [09.02.2018 4:48:56] x264 [info]: i8c dc,h,v,p: 53% 22% 21%  4%---[Information] [09.02.2018 4:48:56] x264 [info]: Weighted P-Frames: Y:15.3% UV:11.6%---[Information] [09.02.2018 4:48:56] x264 [info]: kb/s:8016.54---[Information] [09.02.2018 4:48:56] encoded 211574 frames, 14.24 fps, 8016.54 kb/s
GeneralUnique ID                   : 245910354366988804262780988988832053522 (0xB9009C8BFC91E738BECF709AFFAB7912)Complete name               : G:\Steve Hackett - Wuthering Nights.2018.BDRip1080p.mkvFormat                      : MatroskaFormat version              : Version 2File size                   : 11.4 GiBDuration                    : 2 h 27 minOverall bit rate mode       : VariableOverall bit rate            : 11.1 Mb/sMovie name                  : Steve Hackett - Wuthering Nights.2018.BDRip1080p  @ rutracker.orgEncoded date                : UTC 2018-02-11 08:01:02Writing application         : mkvmerge v9.8.0 ('Kuglblids') 64bitWriting library             : libebml v1.3.4 + libmatroska v1.4.5VideoID                          : 1Format                      : AVCFormat/Info                 : Advanced Video CodecFormat profile              : High@L4.1Format settings             : CABAC / 4 Ref FramesFormat settings, CABAC      : YesFormat settings, ReFrames   : 4 framesCodec ID                    : V_MPEG4/ISO/AVCDuration                    : 2 h 27 minBit rate                    : 8 000 kb/sWidth                       : 1 920 pixelsHeight                      : 1 080 pixelsDisplay aspect ratio        : 16:9Frame rate mode             : ConstantFrame rate                  : 23.976 (24000/1001) FPSColor space                 : YUVChroma subsampling          : 4:2:0Bit depth                   : 8 bitsScan type                   : ProgressiveBits/(Pixel*Frame)          : 0.161Stream size                 : 8.22 GiB (72%)Title                       : anbelk27 @ rutracker.orgWriting library             : x264 core 152 r2851 ba24899Encoding settings           : cabac=1 / ref=4 / deblock=1:-2:-1 / analyse=0x3:0x133 / me=umh / subme=11 / psy=1 / psy_rd=1.12:0.08 / mixed_ref=1 / me_range=32 / chroma_me=1 / trellis=2 / 8x8dct=1 / cqm=0 / deadzone=21,11 / fast_pskip=1 / chroma_qp_offset=-3 / threads=6 / lookahead_threads=1 / sliced_threads=0 / nr=0 / decimate=1 / interlaced=0 / bluray_compat=0 / constrained_intra=0 / bframes=8 / b_pyramid=2 / b_adapt=2 / b_bias=0 / direct=3 / weightb=1 / open_gop=0 / weightp=2 / keyint=240 / keyint_min=23 / scenecut=50 / intra_refresh=0 / rc_lookahead=75 / rc=2pass / mbtree=1 / bitrate=8000 / ratetol=1.0 / qcomp=0.60 / qpmin=0 / qpmax=69 / qpstep=4 / cplxblur=20.0 / qblur=0.5 / vbv_maxrate=50000 / vbv_bufsize=62500 / nal_hrd=none / filler=0 / ip_ratio=1.40 / aq=1:1.00Default                     : YesForced                      : NoAudio #1ID                          : 2Format                      : DTSFormat/Info                 : Digital Theater SystemsCodec ID                    : A_DTSDuration                    : 2 h 27 minBit rate mode               : ConstantBit rate                    : 1 509 kb/sChannel(s)                  : 6 channelsChannel positions           : Front: L C R, Side: L R, LFESampling rate               : 48.0 kHzFrame rate                  : 93.750 FPS (512 SPF)Bit depth                   : 24 bitsCompression mode            : LossyStream size                 : 1.55 GiB (14%)Title                       : DTS 5.1 @ 24 bitDefault                     : YesForced                      : NoAudio #2ID                          : 3Format                      : FLACFormat/Info                 : Free Lossless Audio CodecCodec ID                    : A_FLACDuration                    : 2 h 27 minBit rate mode               : VariableBit rate                    : 1 627 kb/sChannel(s)                  : 2 channelsChannel positions           : Front: L RSampling rate               : 48.0 kHzFrame rate                  : 11.719 FPS (4096 SPF)Bit depth                   : 24 bitsStream size                 : 1.67 GiB (15%)Title                       : FLAC 2.0 @ 24 bitWriting library             : libFLAC 1.2.1 (UTC 2007-09-17)Default                     : NoForced                      : NoMenu00:00:00.000                : en:  Intro00:00:36.077                : en: 1. Every Day00:07:29.782                : en: 2. El Niño00:11:36.779                : en: 3. The Steppes00:20:27.809                : en: 4. In the Skeleton Gallery00:27:59.552                : en: 5. Behind the Smoke00:35:43.057                : en: 6. Serpentine Song00:43:38.699                : en: 7. Rise Again00:49:19.706                : en: 8. Shadow of the Hierophant01:01:34.691                : en: 9. Eleventh Earl of Mar01:10:40.986                : en: 10. One for the Vine01:21:22.252                : en: 11. Blood on the Rooftops01:27:52.267                : en: 12. In That Quiet Earth01:32:56.612                : en: 13. Afterglow01:37:31.428                : en: 14. Dance on a Volcano01:44:55.372                : en: 15. Inside and Out01:51:39.317                : en: 16. Firth of Fifth02:02:12.408                : en: 17. The Musical Box02:16:54.206                : en: 18. Los Endos

Скриншоты

Для скачки контента: [Установить программу-клиент] и кликнуть по - Скачать

[asmlocator.ru].t503498.torrent 
Торрент: Зарегистрирован [ 2018-02-12 23:40 ] · EC8FB78F0FBC797A0C9E2162EE5755244CBD55D4

Скачать .torrent

Скачать

58 KB

Статус: проверено
Скачан: 0 раз
Размер: 11,44 GB
terms.php
[Профиль] [ЛС]
Показать сообщения:    
Ответить на тему

Текущее время: 28-Май 05:29

Часовой пояс: UTC ± 0



Вы не можете начинать темы
Вы не можете отвечать на сообщения
Вы не можете редактировать свои сообщения
Вы не можете удалять свои сообщения
Вы не можете голосовать в опросах
Вы не можете прикреплять файлы к сообщениям
Вы можете скачивать файлы