Justin Timberlake - Super Medley (Live at Super Bowl LII Halftime Show) [2018, Pop/R`n`B/Soul, HDTV, 1080i feed]

Ответить на тему
Статистика раздачи
Размер:  5,34 GB   |    Зарегистрирован:  11 дней   |    Скачан:  0 раз

Полного источника не было: Никогда

 
   
 
 
Автор Сообщение

star21 ®

Пол: Не указан

Стаж: 2 года 3 месяца

Сообщений: 354135

Создавать темы 12-Фев-2018 23:40

[Цитировать]

Justin Timberlake - Super Medley (Live at Super Bowl LII Halftime Show) Жанр: Pop/R`n`B/Soul
Продолжительность: 00:13:13
Год выпуска: 2018Треклист:
Medley
  • Flithy
  • Rock your body
  • Seniorita
  • Sexy back
  • My love
  • Cry me a river
  • Suit & tie
  • Cover Prince
  • Mirror
  • Can`t Stop the feeling
    Качество: HDTV
    Разрешение видео/развертка: 1080i feed
    Контейнер: TS
    Видео кодек: H.264
    Аудио кодек: MP2
    Видео: MPEG 2, 1920x1080 (16:9), 29.970 fps, 53.8 Mbps (0.866 bit/pixel)
    Аудио#1: MP2, 48.0 KHz, 2 ch, 384 Kbps, CBR (English)
    Аудио#2: MP2, 48.0 KHz, 2 ch, 384 Kbps, CBR (English)
    Аудио#3: MP2, 48.0 KHz, 2 ch, 384 Kbps, CBR (English)
    Аудио#4: MP2, 48.0 KHz, 2 ch, 384 Kbps, CBR (English)
    Аудио#6: MP2, 48.0 KHz, 2 ch, 384 Kbps, CBR (English)
    Аудио#7: MP2, 48.0 KHz, 2 ch, 384 Kbps, CBR (English)
    Аудио#8: MP2, 48.0 KHz, 2 ch, 384 Kbps, CBR (English)

MediaInfo

GeneralID                          : 1 (0x1)Complete name               : G:\Justin Timberlake - Live at Super Bowl LII WORLD FEED BACKHAUL 1080i 52mbps 4-2-2 MPA2.0-ALANiS.tsFormat                      : MPEG-TSFile size                   : 5.34 GiBDuration                    : 13 min 13 sOverall bit rate mode       : VariableOverall bit rate            : 57.8 Mb/sMaximum Overall bit rate    : 35.5 Mb/sVideoID                          : 4113 (0x1011)Menu ID                     : 1 (0x1)Format                      : MPEG VideoFormat version              : Version 2Format profile              : 4:2:2@HighFormat settings             : CustomMatrix / BVOPFormat settings, BVOP       : YesFormat settings, Matrix     : CustomFormat settings, GOP        : M=3, N=15Format settings, picture st : FrameCodec ID                    : 2Duration                    : 13 min 13 sBit rate mode               : VariableBit rate                    : 51.8 Mb/sMaximum bit rate            : 53.8 Mb/sWidth                       : 1 920 pixelsHeight                      : 1 080 pixelsDisplay aspect ratio        : 16:9Frame rate                  : 29.970 (30000/1001) FPSColor space                 : YUVChroma subsampling          : 4:2:2Bit depth                   : 8 bitsScan type                   : InterlacedScan order                  : Top Field FirstCompression mode            : LossyBits/(Pixel*Frame)          : 0.834Time code of first frame    : 00:00:00;00Time code source            : Group of pictures headerStream size                 : 4.78 GiB (90%)Color primaries             : BT.709Transfer characteristics    : BT.709Matrix coefficients         : BT.709Audio #1ID                          : 4352 (0x1100)Menu ID                     : 1 (0x1)Format                      : MPEG AudioFormat version              : Version 1Format profile              : Layer 2Format settings             : Intensity Stereo + MS StereoCodec ID                    : 4Duration                    : 13 min 13 sBit rate mode               : ConstantBit rate                    : 384 kb/sChannel(s)                  : 2 channelsSampling rate               : 48.0 kHzFrame rate                  : 41.667 FPS (1152 SPF)Compression mode            : LossyDelay relative to video     : 1 msStream size                 : 36.3 MiB (1%)Language                    : EnglishAudio #2ID                          : 4353 (0x1101)Menu ID                     : 1 (0x1)Format                      : MPEG AudioFormat version              : Version 1Format profile              : Layer 2Format settings             : Intensity Stereo + MS StereoCodec ID                    : 4Duration                    : 13 min 13 sBit rate mode               : ConstantBit rate                    : 384 kb/sChannel(s)                  : 2 channelsSampling rate               : 48.0 kHzFrame rate                  : 41.667 FPS (1152 SPF)Compression mode            : LossyDelay relative to video     : 1 msStream size                 : 36.3 MiB (1%)Language                    : EnglishAudio #3ID                          : 4354 (0x1102)Menu ID                     : 1 (0x1)Format                      : MPEG AudioFormat version              : Version 1Format profile              : Layer 2Format settings             : Intensity Stereo + MS StereoCodec ID                    : 4Duration                    : 13 min 13 sBit rate mode               : ConstantBit rate                    : 384 kb/sChannel(s)                  : 2 channelsSampling rate               : 48.0 kHzFrame rate                  : 41.667 FPS (1152 SPF)Compression mode            : LossyDelay relative to video     : 1 msStream size                 : 36.3 MiB (1%)Language                    : EnglishAudio #4ID                          : 4355 (0x1103)Menu ID                     : 1 (0x1)Format                      : MPEG AudioFormat version              : Version 1Format profile              : Layer 2Format settings             : Intensity Stereo + MS StereoCodec ID                    : 4Duration                    : 13 min 13 sBit rate mode               : ConstantBit rate                    : 384 kb/sChannel(s)                  : 2 channelsSampling rate               : 48.0 kHzFrame rate                  : 41.667 FPS (1152 SPF)Compression mode            : LossyDelay relative to video     : 1 msStream size                 : 36.3 MiB (1%)Language                    : EnglishAudio #5ID                          : 4356 (0x1104)Menu ID                     : 1 (0x1)Format                      : MPEG AudioFormat version              : Version 1Format profile              : Layer 2Format settings             : Intensity Stereo + MS StereoCodec ID                    : 4Duration                    : 13 min 13 sBit rate mode               : ConstantBit rate                    : 384 kb/sChannel(s)                  : 2 channelsSampling rate               : 48.0 kHzFrame rate                  : 41.667 FPS (1152 SPF)Compression mode            : LossyDelay relative to video     : 1 msStream size                 : 36.3 MiB (1%)Language                    : EnglishAudio #6ID                          : 4357 (0x1105)Menu ID                     : 1 (0x1)Format                      : MPEG AudioFormat version              : Version 1Format profile              : Layer 2Format settings             : Intensity Stereo + MS StereoCodec ID                    : 4Duration                    : 13 min 13 sBit rate mode               : ConstantBit rate                    : 384 kb/sChannel(s)                  : 2 channelsSampling rate               : 48.0 kHzFrame rate                  : 41.667 FPS (1152 SPF)Compression mode            : LossyDelay relative to video     : 1 msStream size                 : 36.3 MiB (1%)Language                    : EnglishAudio #7ID                          : 4358 (0x1106)Menu ID                     : 1 (0x1)Format                      : MPEG AudioFormat version              : Version 1Format profile              : Layer 2Format settings             : Intensity Stereo + MS StereoCodec ID                    : 4Duration                    : 13 min 13 sBit rate mode               : ConstantBit rate                    : 384 kb/sChannel(s)                  : 2 channelsSampling rate               : 48.0 kHzFrame rate                  : 41.667 FPS (1152 SPF)Compression mode            : LossyDelay relative to video     : 1 msStream size                 : 36.3 MiB (1%)Language                    : EnglishAudio #8ID                          : 4359 (0x1107)Menu ID                     : 1 (0x1)Format                      : MPEG AudioFormat version              : Version 1Format profile              : Layer 2Format settings             : Intensity Stereo + MS StereoCodec ID                    : 4Duration                    : 13 min 13 sBit rate mode               : ConstantBit rate                    : 384 kb/sChannel(s)                  : 2 channelsSampling rate               : 48.0 kHzFrame rate                  : 41.667 FPS (1152 SPF)Compression mode            : LossyDelay relative to video     : 1 msStream size                 : 36.3 MiB (1%)Language                    : English

Скриншоты

Для скачки контента: [Установить программу-клиент] и кликнуть по - Скачать

[asmlocator.ru].t503488.torrent 
Торрент: Зарегистрирован [ 2018-02-12 23:40 ] · DDFFD1456029CC41294323E1A0CE24437B8CBD81

Скачать .torrent

Скачать

27 KB

Статус: проверено
Скачан: 0 раз
Размер: 5,34 GB
terms.php
[Профиль] [ЛС]
Показать сообщения:    
Ответить на тему

Текущее время: 24-Фев 21:27

Часовой пояс: UTC ± 0



Вы не можете начинать темы
Вы не можете отвечать на сообщения
Вы не можете редактировать свои сообщения
Вы не можете удалять свои сообщения
Вы не можете голосовать в опросах
Вы не можете прикреплять файлы к сообщениям
Вы можете скачивать файлы