(Ethnic, world, ethno-jazz) [CDR] Marinita & Orhan Agabeyli - Marinita - 2015, FLAC (tracks+.cue), lossless :: Официальный сайт PrivalSystems и Asmlocator

(Ethnic, world, ethno-jazz) [CDR] Marinita & Orhan Agabeyli - Marinita - 2015, FLAC (tracks+.cue), lossless

Ответить на тему
Статистика раздачи
Размер:  251 MB   |    Зарегистрирован:  6 месяцев 2 дня   |    Скачан:  0 раз

Полного источника не было: Никогда

 
   
 
 
Автор Сообщение

star21 ®

Пол: Женский

Стаж: 2 года 9 месяцев

Сообщений: 532050

Откуда: Екатеринбург

Создавать темы 12-Фев-2018 23:40

[Цитировать]

Marinita & Orhan Agabeyli / Marinita Жанр: Ethnic, world, ethno-jazz
Носитель: CDR
Страна-производитель диска (релиза): Украина
Год издания: 2015
Страна исполнителя (группы): Украина
Аудиокодек: FLAC (*.flac)
Тип рипа: tracks+.cue
Битрейт аудио: lossless
Продолжительность: 42:27
Источник (релизер): Свой рип
Наличие сканов в содержимом раздачи: да
Треклист:
01. Puncha Puncha (5:45)
02. Naci en Alamo (5:15)
03. Qara Qasin Vesmesi (3:03)
04. Morenica (4:49)
05. Ornament of The past (4:24)
06. Getme Gel (4:28)
07. Land Of Milk and Honey (5:14)
08. Morena (3:39)
09. Yo Era Nina (5:48)

Лог создания рипа

Exact Audio Copy V1.3 from 2. September 2016EAC extraction logfile from 12. February 2018, 17:03Marinita & Orhan Agabeyli / MarinitaUsed drive  : TEAC    CD-W524E   Adapter: 1  ID: 2Read mode               : SecureUtilize accurate stream : YesDefeat audio cache      : YesMake use of C2 pointers : NoRead offset correction                      : 686Overread into Lead-In and Lead-Out          : NoFill up missing offset samples with silence : YesDelete leading and trailing silent blocks   : NoNull samples used in CRC calculations       : YesUsed interface                              : Native Win32 interface for Win NT & 2000Gap handling                                : Appended to previous trackUsed output format              : User Defined EncoderSelected bitrate                : 896 kBit/sQuality                         : HighAdd ID3 tag                     : NoCommand line compressor         : C:\Program Files\Exact Audio Copy\FLAC\FLAC.EXEAdditional command line options : -8 -V -T "ARTIST=%artist%" -T "TITLE=%title%" -T "ALBUM=%albumtitle%" -T "DATE=%year%" -T "TRACKNUMBER=%tracknr%" -T "GENRE=%genre%" -T "COMMENT=%comment%" %hascover%--picture="%coverfile%"%hascover% %source% -o %dest%TOC of the extracted CD     Track |   Start  |  Length  | Start sector | End sector    ---------------------------------------------------------        1  |  0:00.00 |  5:45.20 |         0    |    25894        2  |  5:45.20 |  5:15.09 |     25895    |    49528        3  | 11:00.29 |  3:03.33 |     49529    |    63286        4  | 14:03.62 |  4:48.50 |     63287    |    84936        5  | 18:52.37 |  4:24.19 |     84937    |   104755        6  | 23:16.56 |  4:28.24 |    104756    |   124879        7  | 27:45.05 |  5:14.09 |    124880    |   148438        8  | 32:59.14 |  3:39.06 |    148439    |   164869        9  | 36:38.20 |  5:48.32 |    164870    |   191001Track  1     Filename I:\CD_lossless_my\Marinita & Orhan Agabeyli - Marinita (2015)\01. Marinita & Orhan Agabeyli - Puncha Puncha.wav     Pre-gap length  0:00:02.00     Peak level 98.3 %     Extraction speed 3.4 X     Track quality 99.9 %     Test CRC 1812288F     Copy CRC 1812288F     Track not present in AccurateRip database     Copy OKTrack  2     Filename I:\CD_lossless_my\Marinita & Orhan Agabeyli - Marinita (2015)\02. Marinita & Orhan Agabeyli - Naci en Alamo.wav     Peak level 98.4 %     Extraction speed 5.0 X     Track quality 100.0 %     Test CRC 3F871835     Copy CRC 3F871835     Track not present in AccurateRip database     Copy OKTrack  3     Filename I:\CD_lossless_my\Marinita & Orhan Agabeyli - Marinita (2015)\03. Marinita & Orhan Agabeyli - Qara Qasin Vesmesi.wav     Peak level 98.5 %     Extraction speed 4.9 X     Track quality 100.0 %     Test CRC F166E34F     Copy CRC F166E34F     Track not present in AccurateRip database     Copy OKTrack  4     Filename I:\CD_lossless_my\Marinita & Orhan Agabeyli - Marinita (2015)\04. Marinita & Orhan Agabeyli - Morenica.wav     Peak level 98.4 %     Extraction speed 5.6 X     Track quality 100.0 %     Test CRC AF03EA0C     Copy CRC AF03EA0C     Track not present in AccurateRip database     Copy OKTrack  5     Filename I:\CD_lossless_my\Marinita & Orhan Agabeyli - Marinita (2015)\05. Marinita & Orhan Agabeyli - Ornament of The past.wav     Peak level 98.5 %     Extraction speed 3.5 X     Track quality 99.9 %     Test CRC 046716C5     Copy CRC 046716C5     Track not present in AccurateRip database     Copy OKTrack  6     Filename I:\CD_lossless_my\Marinita & Orhan Agabeyli - Marinita (2015)\06. Marinita & Orhan Agabeyli - Getme Gel.wav     Peak level 98.4 %     Extraction speed 6.0 X     Track quality 100.0 %     Test CRC 00BBD16F     Copy CRC 00BBD16F     Track not present in AccurateRip database     Copy OKTrack  7     Filename I:\CD_lossless_my\Marinita & Orhan Agabeyli - Marinita (2015)\07. Marinita & Orhan Agabeyli - Land Of Milk and Honey.wav     Peak level 98.8 %     Extraction speed 6.5 X     Track quality 100.0 %     Test CRC D1D2F486     Copy CRC D1D2F486     Track not present in AccurateRip database     Copy OKTrack  8     Filename I:\CD_lossless_my\Marinita & Orhan Agabeyli - Marinita (2015)\08. Marinita & Orhan Agabeyli - Morena.wav     Peak level 98.8 %     Extraction speed 6.3 X     Track quality 100.0 %     Test CRC 79D44ADC     Copy CRC 79D44ADC     Track not present in AccurateRip database     Copy OKTrack  9     Filename I:\CD_lossless_my\Marinita & Orhan Agabeyli - Marinita (2015)\09. Marinita & Orhan Agabeyli - Yo Era Nina.wav     Peak level 99.5 %     Extraction speed 7.1 X     Track quality 100.0 %     Test CRC CE11A924     Copy CRC CE11A924     Track not present in AccurateRip database     Copy OKNone of the tracks are present in the AccurateRip databaseNo errors occurredEnd of status report---- CUETools DB Plugin V2.1.6[CTDB TOCID: Tt6.nlSFChEdz7xEMU5VvBlfOGE-] foundSubmit result: Tt6.nlSFChEdz7xEMU5VvBlfOGE- has been confirmedTrack | CTDB Status  1   | (1/2) Accurately ripped  2   | (2/2) Accurately ripped  3   | (2/2) Accurately ripped  4   | (2/2) Accurately ripped  5   | (2/2) Accurately ripped  6   | (2/2) Accurately ripped  7   | (2/2) Accurately ripped  8   | (2/2) Accurately ripped  9   | (2/2) Accurately ripped==== Log checksum 64BC6F852BA4AD347FBBAD539AAEFF480746FC219B3F8744FE3766A85B490BC6 ====

Содержание индексной карты (.CUE)

REM GENRE EthnicREM DATE 2015REM DISCID 7809F209REM COMMENT "ExactAudioCopy v1.3"PERFORMER "Marinita & Orhan Agabeyli"TITLE "Marinita"REM COMPOSER ""FILE "01. Marinita & Orhan Agabeyli - Puncha Puncha.flac" WAVE  TRACK 01 AUDIO    TITLE "Puncha Puncha"    PERFORMER "Marinita & Orhan Agabeyli"    REM COMPOSER ""    INDEX 01 00:00:00FILE "02. Marinita & Orhan Agabeyli - Naci en Alamo.flac" WAVE  TRACK 02 AUDIO    TITLE "Naci en Alamo"    PERFORMER "Marinita & Orhan Agabeyli"    REM COMPOSER ""    INDEX 01 00:00:00FILE "03. Marinita & Orhan Agabeyli - Qara Qasin Vesmesi.flac" WAVE  TRACK 03 AUDIO    TITLE "Qara Qasin Vesmesi"    PERFORMER "Marinita & Orhan Agabeyli"    REM COMPOSER ""    INDEX 01 00:00:00FILE "04. Marinita & Orhan Agabeyli - Morenica.flac" WAVE  TRACK 04 AUDIO    TITLE "Morenica"    PERFORMER "Marinita & Orhan Agabeyli"    REM COMPOSER ""    INDEX 01 00:00:00FILE "05. Marinita & Orhan Agabeyli - Ornament of The past.flac" WAVE  TRACK 05 AUDIO    TITLE "Ornament of The past"    PERFORMER "Marinita & Orhan Agabeyli"    REM COMPOSER ""    INDEX 01 00:00:00FILE "06. Marinita & Orhan Agabeyli - Getme Gel.flac" WAVE  TRACK 06 AUDIO    TITLE "Getme Gel"    PERFORMER "Marinita & Orhan Agabeyli"    REM COMPOSER ""    INDEX 01 00:00:00FILE "07. Marinita & Orhan Agabeyli - Land Of Milk and Honey.flac" WAVE  TRACK 07 AUDIO    TITLE "Land Of Milk and Honey"    PERFORMER "Marinita & Orhan Agabeyli"    REM COMPOSER ""    INDEX 01 00:00:00FILE "08. Marinita & Orhan Agabeyli - Morena.flac" WAVE  TRACK 08 AUDIO    TITLE "Morena"    PERFORMER "Marinita & Orhan Agabeyli"    REM COMPOSER ""    INDEX 01 00:00:00FILE "09. Marinita & Orhan Agabeyli - Yo Era Nina.flac" WAVE  TRACK 09 AUDIO    TITLE "Yo Era Nina"    PERFORMER "Marinita & Orhan Agabeyli"    REM COMPOSER ""    INDEX 01 00:00:00

Для скачки контента: [Установить программу-клиент] и кликнуть по - СкачатьБезопасность: клиент проверен АВ Касперского

[asmlocator.ru].t503482.torrent 
Торрент: Зарегистрирован [ 2018-02-12 23:40 ] · C9C1495AF04D03B26546FDC2F3A7FA57B24CE083

Скачать .torrent

Скачать

21 KB

Статус: проверено
Скачан: 0 раз
Размер: 251 MB
terms.php
[Профиль] [ЛС]
Показать сообщения:    
Ответить на тему

Текущее время: 15-Авг 11:12

Часовой пояс: UTC ± 0



Вы не можете начинать темы
Вы не можете отвечать на сообщения
Вы не можете редактировать свои сообщения
Вы не можете удалять свои сообщения
Вы не можете голосовать в опросах
Вы не можете прикреплять файлы к сообщениям
Вы можете скачивать файлы