(Punk rock/garage punk) [CD] Dead Moon - Студийная Дискография (10 CD) - 1988-2004, FLAC (tracks), lossless

Ответить на тему
Статистика раздачи
Размер:  1,74 GB   |    Зарегистрирован:  8 месяцев 4 дня   |    Скачан:  0 раз

Полного источника не было: Никогда

 
   
 
 
Автор Сообщение

star21 ®

Пол: Женский

Стаж: 2 года 11 месяцев

Сообщений: 552946

Откуда: Екатеринбург

Создавать темы 12-Фев-2018 19:30

[Цитировать]

Dead Moon / Cтудийная Дискография (1988-2004) Жанр: Punk rock/garage punk
Носитель: CD
Год издания: 1988-2004
Страна исполнителя (группы): USA
Аудиокодек: FLAC (*.flac)
Тип рипа: tracks
Битрейт аудио: lossless
Продолжительность: 5:37:55
Источник (релизер): собственная коллекция
Наличие сканов в содержимом раздачи: нет
Треклист:

1988 - In the Graveyard [M'Lady's Records, 2014]

Dead Moon - GraveyardDead Moon - Out On a WireDead Moon - Can't Help Falling in LoveDead Moon - Parchment FarmDead Moon - Dead in the  SaddleDead Moon - Hey JoeDead Moon - Don't Burn the FiresDead Moon - Where Did I Go WrongDead Moon - Remember MeDead Moon - I Hate the Blues

Отчёт EAC

Exact Audio Copy V1.0 beta 4 from 7. December 2014EAC extraction logfile from 9. May 2015, 18:21Dead Moon / In The GraveyardUsed drive : HL-DT-STBD-RE WH12LS30 Adapter: 1 ID: 0Read mode : Secure
Utilize accurate stream : Yes
Defeat audio cache : Yes
Make use of C2 pointers : NoRead offset correction : 667
Overread into Lead-In and Lead-Out : No
Fill up missing offset samples with silence : Yes
Delete leading and trailing silent blocks : No
Null samples used in CRC calculations : Yes
Used interface : Native Win32 interface for Win NT & 2000
Gap handling : Appended to previous trackUsed output format : User Defined Encoder
Selected bitrate : 1024 kBit/s
Quality : High
Add ID3 tag : No
Command line compressor : C:\Program Files (x86)\Exact Audio Copy\FLAC\FLAC.EXE
Additional command line options : -6 -V -T "ARTIST=%artist%" -T "TITLE=%title%" -T "ALBUM=%albumtitle%" -T "DATE=%year%" -T "TRACKNUMBER=%tracknr%" -T "GENRE=%genre%" -T "COMMENT=%comment%" -T "BAND=%albuminterpret%" -T "ALBUMARTIST=%albuminterpret%" -T "COMPOSER=%composer%" %haslyrics%--tag-from-file=LYRICS="%lyricsfile%"%haslyrics% -T "DISCNUMBER=%cdnumber%" -T "TOTALDISCS=%totalcds%" -T "TOTALTRACKS=%numtracks%" %hascover%--picture="%coverfile%"%hascover% %source% -o %dest%TOC of the extracted CD Track | Start | Length | Start sector | End sector
---------------------------------------------------------
1 | 0:00.00 | 2:32.72 | 0 | 11471
2 | 2:32.72 | 2:50.65 | 11472 | 24286
3 | 5:23.62 | 1:45.50 | 24287 | 32211
4 | 7:09.37 | 3:35.53 | 32212 | 48389
5 | 10:45.15 | 3:43.23 | 48390 | 65137
6 | 14:28.38 | 2:58.00 | 65138 | 78487
7 | 17:26.38 | 3:30.29 | 78488 | 94266
8 | 20:56.67 | 2:17.17 | 94267 | 104558
9 | 23:14.09 | 2:54.71 | 104559 | 117679
10 | 26:09.05 | 2:34.40 | 117680 | 129269Track 1 Filename C:\Users\Smoky\Desktop\What.CD Projects\Dead Moon - In the Graveyard (1988) 2014 RM [FLAC]\01 - Graveyard.wav Pre-gap length 0:00:02.00 Peak level 96.3 %
Extraction speed 1.1 X
Track quality 100.0 %
Test CRC 2FF50114
Copy CRC 2FF50114
Accurately ripped (confidence 1) [6F9A7AB3] (AR v2)
Copy OKTrack 2 Filename C:\Users\Smoky\Desktop\What.CD Projects\Dead Moon - In the Graveyard (1988) 2014 RM [FLAC]\02 - Out On A Wire.wav Peak level 96.5 %
Extraction speed 1.2 X
Track quality 100.0 %
Test CRC 27F430C3
Copy CRC 27F430C3
Accurately ripped (confidence 1) [ABBB424B] (AR v2)
Copy OKTrack 3 Filename C:\Users\Smoky\Desktop\What.CD Projects\Dead Moon - In the Graveyard (1988) 2014 RM [FLAC]\03 - Can't Help Falling In Love.wav Peak level 96.5 %
Extraction speed 1.1 X
Track quality 100.0 %
Test CRC 600708BF
Copy CRC 600708BF
Accurately ripped (confidence 1) [0079BCA1] (AR v2)
Copy OKTrack 4 Filename C:\Users\Smoky\Desktop\What.CD Projects\Dead Moon - In the Graveyard (1988) 2014 RM [FLAC]\04 - Parchment Farm.wav Peak level 96.9 %
Extraction speed 1.4 X
Track quality 100.0 %
Test CRC 2657E70B
Copy CRC 2657E70B
Accurately ripped (confidence 1) [782B52CE] (AR v2)
Copy OKTrack 5 Filename C:\Users\Smoky\Desktop\What.CD Projects\Dead Moon - In the Graveyard (1988) 2014 RM [FLAC]\05 - Dead In The Saddle.wav Peak level 85.8 %
Extraction speed 1.5 X
Track quality 100.0 %
Test CRC C1EB893F
Copy CRC C1EB893F
Accurately ripped (confidence 1) [EC60714E] (AR v2)
Copy OKTrack 6 Filename C:\Users\Smoky\Desktop\What.CD Projects\Dead Moon - In the Graveyard (1988) 2014 RM [FLAC]\06 - Hey Joe.wav Peak level 97.3 %
Extraction speed 1.5 X
Track quality 100.0 %
Test CRC 5552D491
Copy CRC 5552D491
Accurately ripped (confidence 1) [6F1355B9] (AR v2)
Copy OKTrack 7 Filename C:\Users\Smoky\Desktop\What.CD Projects\Dead Moon - In the Graveyard (1988) 2014 RM [FLAC]\07 - Don't Burn The Fires.wav Peak level 92.4 %
Extraction speed 1.6 X
Track quality 100.0 %
Test CRC 132C456F
Copy CRC 132C456F
Accurately ripped (confidence 1) [08E5D1FF] (AR v2)
Copy OKTrack 8 Filename C:\Users\Smoky\Desktop\What.CD Projects\Dead Moon - In the Graveyard (1988) 2014 RM [FLAC]\08 - Where Did I Go Wrong.wav Peak level 94.9 %
Extraction speed 1.6 X
Track quality 100.0 %
Test CRC 12FBD577
Copy CRC 12FBD577
Accurately ripped (confidence 1) [46B708AB] (AR v2)
Copy OKTrack 9 Filename C:\Users\Smoky\Desktop\What.CD Projects\Dead Moon - In the Graveyard (1988) 2014 RM [FLAC]\09 - Remember Me.wav Peak level 90.2 %
Extraction speed 1.5 X
Track quality 99.9 %
Test CRC 6708FEBE
Copy CRC 6708FEBE
Accurately ripped (confidence 1) [788D28B6] (AR v2)
Copy OKTrack 10 Filename C:\Users\Smoky\Desktop\What.CD Projects\Dead Moon - In the Graveyard (1988) 2014 RM [FLAC]\10 - I Hate The Blues.wav Peak level 96.3 %
Extraction speed 1.8 X
Track quality 100.0 %
Test CRC 3B23AB31
Copy CRC 3B23AB31
Accurately ripped (confidence 1) [037B49A6] (AR v2)
Copy OKAll tracks accurately rippedNo errors occurredEnd of status report

1989 - Unknown Passage [M'Lady's Records, 2014]

Dead Moon - Dead Moon NightDead Moon - My EscapeDead Moon - A Miss of YouDead Moon - 54/40 or FightDead Moon - I'm WiseDead Moon - Evil EyeDead Moon - I TriedDead Moon - My Time Has ComeDead Moon - DemonaDead Moon - On My Own

Отчёт EAC

Exact Audio Copy V1.0 beta 4 from 7. December 2014EAC extraction logfile from 9. May 2015, 16:29Dead Moon / Unknown PassageUsed drive : HL-DT-STBD-RE WH12LS30 Adapter: 1 ID: 0Read mode : Secure
Utilize accurate stream : Yes
Defeat audio cache : Yes
Make use of C2 pointers : NoRead offset correction : 667
Overread into Lead-In and Lead-Out : No
Fill up missing offset samples with silence : Yes
Delete leading and trailing silent blocks : No
Null samples used in CRC calculations : Yes
Used interface : Native Win32 interface for Win NT & 2000
Gap handling : Appended to previous trackUsed output format : User Defined Encoder
Selected bitrate : 1024 kBit/s
Quality : High
Add ID3 tag : No
Command line compressor : C:\Program Files (x86)\Exact Audio Copy\FLAC\FLAC.EXE
Additional command line options : -6 -V -T "ARTIST=%artist%" -T "TITLE=%title%" -T "ALBUM=%albumtitle%" -T "DATE=%year%" -T "TRACKNUMBER=%tracknr%" -T "GENRE=%genre%" -T "COMMENT=%comment%" -T "BAND=%albuminterpret%" -T "ALBUMARTIST=%albuminterpret%" -T "COMPOSER=%composer%" %haslyrics%--tag-from-file=LYRICS="%lyricsfile%"%haslyrics% -T "DISCNUMBER=%cdnumber%" -T "TOTALDISCS=%totalcds%" -T "TOTALTRACKS=%numtracks%" %hascover%--picture="%coverfile%"%hascover% %source% -o %dest%TOC of the extracted CD Track | Start | Length | Start sector | End sector
---------------------------------------------------------
1 | 0:00.00 | 4:47.02 | 0 | 21526
2 | 4:47.02 | 3:09.05 | 21527 | 35706
3 | 7:56.07 | 2:47.30 | 35707 | 48261
4 | 10:43.37 | 4:11.25 | 48262 | 67111
5 | 14:54.62 | 3:27.07 | 67112 | 82643
6 | 18:21.69 | 2:42.46 | 82644 | 94839
7 | 21:04.40 | 3:12.22 | 94840 | 109261
8 | 24:16.62 | 4:30.41 | 109262 | 129552
9 | 28:47.28 | 2:37.25 | 129553 | 141352
10 | 31:24.53 | 2:39.66 | 141353 | 153343Track 1 Filename C:\Users\Smoky\Desktop\What.CD Projects\Dead Moon - Unknown Passage (1989) 2014 RM [FLAC]\01 - Dead Moon Night.wav Pre-gap length 0:00:02.00 Peak level 95.8 %
Extraction speed 1.3 X
Track quality 100.0 %
Test CRC 9DEA61E1
Copy CRC 9DEA61E1
Accurately ripped (confidence 2) [17799BF4] (AR v2)
Copy OKTrack 2 Filename C:\Users\Smoky\Desktop\What.CD Projects\Dead Moon - Unknown Passage (1989) 2014 RM [FLAC]\02 - My Escape.wav Peak level 96.0 %
Extraction speed 1.3 X
Track quality 100.0 %
Test CRC 730922A6
Copy CRC 730922A6
Accurately ripped (confidence 2) [B634BC62] (AR v2)
Copy OKTrack 3 Filename C:\Users\Smoky\Desktop\What.CD Projects\Dead Moon - Unknown Passage (1989) 2014 RM [FLAC]\03 - A Miss of You.wav Peak level 95.9 %
Extraction speed 1.4 X
Track quality 100.0 %
Test CRC BDF2760E
Copy CRC BDF2760E
Accurately ripped (confidence 2) [0EF82467] (AR v2)
Copy OKTrack 4 Filename C:\Users\Smoky\Desktop\What.CD Projects\Dead Moon - Unknown Passage (1989) 2014 RM [FLAC]\04 - 54,40 Or Fight.wav Peak level 96.1 %
Extraction speed 1.4 X
Track quality 99.9 %
Test CRC 0D4BE21B
Copy CRC 0D4BE21B
Accurately ripped (confidence 2) [D9126CFE] (AR v2)
Copy OKTrack 5 Filename C:\Users\Smoky\Desktop\What.CD Projects\Dead Moon - Unknown Passage (1989) 2014 RM [FLAC]\05 - I'm Wise.wav Peak level 90.6 %
Extraction speed 1.6 X
Track quality 100.0 %
Test CRC CF89A7AE
Copy CRC CF89A7AE
Accurately ripped (confidence 2) [DFBDB87D] (AR v2)
Copy OKTrack 6 Filename C:\Users\Smoky\Desktop\What.CD Projects\Dead Moon - Unknown Passage (1989) 2014 RM [FLAC]\06 - Evil Eye.wav Peak level 97.1 %
Extraction speed 1.6 X
Track quality 100.0 %
Test CRC 3CE02ACB
Copy CRC 3CE02ACB
Accurately ripped (confidence 2) [6C36A81B] (AR v2)
Copy OKTrack 7 Filename C:\Users\Smoky\Desktop\What.CD Projects\Dead Moon - Unknown Passage (1989) 2014 RM [FLAC]\07 - I Tried.wav Peak level 96.2 %
Extraction speed 1.8 X
Track quality 100.0 %
Test CRC 2F41DECC
Copy CRC 2F41DECC
Accurately ripped (confidence 2) [BE8CA9B0] (AR v2)
Copy OKTrack 8 Filename C:\Users\Smoky\Desktop\What.CD Projects\Dead Moon - Unknown Passage (1989) 2014 RM [FLAC]\08 - My Time Has Come.wav Peak level 96.7 %
Extraction speed 1.7 X
Track quality 99.9 %
Test CRC 2850535B
Copy CRC 2850535B
Accurately ripped (confidence 2) [D2D6007B] (AR v2)
Copy OKTrack 9 Filename C:\Users\Smoky\Desktop\What.CD Projects\Dead Moon - Unknown Passage (1989) 2014 RM [FLAC]\09 - Demona.wav Peak level 94.2 %
Extraction speed 1.5 X
Track quality 99.9 %
Test CRC C4EF7AFB
Copy CRC C4EF7AFB
Accurately ripped (confidence 2) [9F413AC9] (AR v2)
Copy OKTrack 10 Filename C:\Users\Smoky\Desktop\What.CD Projects\Dead Moon - Unknown Passage (1989) 2014 RM [FLAC]\10 - On My Own.wav Peak level 96.7 %
Extraction speed 1.9 X
Track quality 100.0 %
Test CRC F4C2EA0A
Copy CRC F4C2EA0A
Accurately ripped (confidence 2) [632508EC] (AR v2)
Copy OKAll tracks accurately rippedNo errors occurredEnd of status report

1990 - Defiance [M'Lady's Records, 2014]

Dead Moon - Milk Cow BluesDead Moon - Not the Only OneDead Moon - Crystal Is FallingDead Moon - RevengeDead Moon - Dagger MoonDead Moon - Walking On My GraveDead Moon - Johnny's Got a GunDead Moon - I'm Out NineDead Moon - Kicked Out - Kicked InDead Moon - Unknown Passage

Отчёт EAC

Exact Audio Copy V1.0 beta 4 from 7. December 2014EAC extraction logfile from 9. May 2015, 17:27Dead Moon / DefianceUsed drive : HL-DT-STBD-RE WH12LS30 Adapter: 1 ID: 0Read mode : Secure
Utilize accurate stream : Yes
Defeat audio cache : Yes
Make use of C2 pointers : NoRead offset correction : 667
Overread into Lead-In and Lead-Out : No
Fill up missing offset samples with silence : Yes
Delete leading and trailing silent blocks : No
Null samples used in CRC calculations : Yes
Used interface : Native Win32 interface for Win NT & 2000
Gap handling : Appended to previous trackUsed output format : User Defined Encoder
Selected bitrate : 1024 kBit/s
Quality : High
Add ID3 tag : No
Command line compressor : C:\Program Files (x86)\Exact Audio Copy\FLAC\FLAC.EXE
Additional command line options : -6 -V -T "ARTIST=%artist%" -T "TITLE=%title%" -T "ALBUM=%albumtitle%" -T "DATE=%year%" -T "TRACKNUMBER=%tracknr%" -T "GENRE=%genre%" -T "COMMENT=%comment%" -T "BAND=%albuminterpret%" -T "ALBUMARTIST=%albuminterpret%" -T "COMPOSER=%composer%" %haslyrics%--tag-from-file=LYRICS="%lyricsfile%"%haslyrics% -T "DISCNUMBER=%cdnumber%" -T "TOTALDISCS=%totalcds%" -T "TOTALTRACKS=%numtracks%" %hascover%--picture="%coverfile%"%hascover% %source% -o %dest%TOC of the extracted CD Track | Start | Length | Start sector | End sector
---------------------------------------------------------
1 | 0:00.00 | 3:39.54 | 0 | 16478
2 | 3:39.54 | 2:03.18 | 16479 | 25721
3 | 5:42.72 | 2:23.37 | 25722 | 36483
4 | 8:06.34 | 2:12.42 | 36484 | 46425
5 | 10:19.01 | 3:45.31 | 46426 | 63331
6 | 14:04.32 | 3:08.11 | 63332 | 77442
7 | 17:12.43 | 3:07.61 | 77443 | 91528
8 | 20:20.29 | 1:36.29 | 91529 | 98757
9 | 21:56.58 | 2:33.31 | 98758 | 110263
10 | 24:30.14 | 1:51.13 | 110264 | 118601Track 1 Filename C:\Users\Smoky\Desktop\What.CD Projects\Dead Moon - Defiance (1990) 2014 RM [FLAC]\01 - Milk Cow Blues.wav Pre-gap length 0:00:02.00 Peak level 97.0 %
Extraction speed 1.1 X
Track quality 100.0 %
Test CRC 6FBB34EE
Copy CRC 6FBB34EE
Accurately ripped (confidence 2) [D3B20BB1] (AR v2)
Copy OKTrack 2 Filename C:\Users\Smoky\Desktop\What.CD Projects\Dead Moon - Defiance (1990) 2014 RM [FLAC]\02 - Not the Only One.wav Peak level 97.4 %
Extraction speed 1.1 X
Track quality 100.0 %
Test CRC 4FDE910A
Copy CRC 4FDE910A
Accurately ripped (confidence 2) [669FFAC5] (AR v2)
Copy OKTrack 3 Filename C:\Users\Smoky\Desktop\What.CD Projects\Dead Moon - Defiance (1990) 2014 RM [FLAC]\03 - Crystal is Falling.wav Peak level 96.2 %
Extraction speed 1.2 X
Track quality 100.0 %
Test CRC 4F941502
Copy CRC 4F941502
Accurately ripped (confidence 2) [8DB7F9CD] (AR v2)
Copy OKTrack 4 Filename C:\Users\Smoky\Desktop\What.CD Projects\Dead Moon - Defiance (1990) 2014 RM [FLAC]\04 - Revenge.wav Peak level 96.7 %
Extraction speed 1.3 X
Track quality 100.0 %
Test CRC 64FBF80B
Copy CRC 64FBF80B
Accurately ripped (confidence 2) [370C0AC6] (AR v2)
Copy OKTrack 5 Filename C:\Users\Smoky\Desktop\What.CD Projects\Dead Moon - Defiance (1990) 2014 RM [FLAC]\05 - Dagger Moon.wav Peak level 96.7 %
Extraction speed 1.3 X
Track quality 99.9 %
Test CRC 55DE8C37
Copy CRC 55DE8C37
Accurately ripped (confidence 2) [6DD22FFB] (AR v2)
Copy OKTrack 6 Filename C:\Users\Smoky\Desktop\What.CD Projects\Dead Moon - Defiance (1990) 2014 RM [FLAC]\06 - Walking on My Grave.wav Peak level 96.6 %
Extraction speed 1.5 X
Track quality 100.0 %
Test CRC 764F2252
Copy CRC 764F2252
Accurately ripped (confidence 2) [089BBECF] (AR v2)
Copy OKTrack 7 Filename C:\Users\Smoky\Desktop\What.CD Projects\Dead Moon - Defiance (1990) 2014 RM [FLAC]\07 - Johnny's Got a Gun.wav Peak level 96.7 %
Extraction speed 1.6 X
Track quality 100.0 %
Test CRC 83B40FDA
Copy CRC 83B40FDA
Accurately ripped (confidence 2) [4C94A584] (AR v2)
Copy OKTrack 8 Filename C:\Users\Smoky\Desktop\What.CD Projects\Dead Moon - Defiance (1990) 2014 RM [FLAC]\08 - I'm Out Nine.wav Peak level 96.0 %
Extraction speed 1.4 X
Track quality 100.0 %
Test CRC DD6A93D5
Copy CRC DD6A93D5
Accurately ripped (confidence 2) [C4C32589] (AR v2)
Copy OKTrack 9 Filename C:\Users\Smoky\Desktop\What.CD Projects\Dead Moon - Defiance (1990) 2014 RM [FLAC]\09 - Kicked Out - Kicked In.wav Peak level 96.5 %
Extraction speed 1.6 X
Track quality 100.0 %
Test CRC 22DC5F2D
Copy CRC 22DC5F2D
Accurately ripped (confidence 2) [409940F8] (AR v2)
Copy OKTrack 10 Filename C:\Users\Smoky\Desktop\What.CD Projects\Dead Moon - Defiance (1990) 2014 RM [FLAC]\10 - Unknown Passage.wav Peak level 77.8 %
Extraction speed 1.5 X
Track quality 100.0 %
Test CRC 83CE1E60
Copy CRC 83CE1E60
Accurately ripped (confidence 2) [9B579C3F] (AR v2)
Copy OKAll tracks accurately rippedNo errors occurredEnd of status report

1991 - Stranded In The Mystery Zone [Music Maniac Records, 1991]

Dead Moon - A Fix On YouDead Moon - Sorrow's ForecastDead Moon - Clouds Of DawnDead Moon - Get On BoardDead Moon - SpectacleDead Moon - Crazy To The BoneDead Moon - CastawaysDead Moon - JaneDead Moon - Down The RoadDead Moon - Pain For PrettyDead Moon - Over The EdgeDead Moon - In The Altitudes

Отчёт EAC

EAC extraction logfile from 13. February 2009, 22:02 for CD
Dead Moon / Stranded In The Mystery ZoneUsed drive : HL-DT-STDVD-ROM GDR8163B Adapter: 1 ID: 0
Read mode : Secure with NO C2, accurate stream, disable cache
Read offset correction : 102
Overread into Lead-In and Lead-Out : NoUsed output format : C:\Program Files\Exact Audio Copy\flac.exe (User Defined Encoder)
128 kBit/s
Additional command line options : -V -8 -T "artist=%a" -T "title=%t" -T "album=%g" -T "date=%y" -T "tracknumber=%n" -T "genre=%m" %sOther options :
Fill up missing offset samples with silence : Yes
Delete leading and trailing silent blocks : No
Native Win32 interface for Win NT & 2000Track 1
Filename K:\EAC Rips\Dead Moon - 1991 - Stranded In The Mystery Zone\01 - A Fix On You.wav Pre-gap length 0:00:02.00 Peak level 85.1 %
Track quality 99.9 %
Test CRC 1AFF2EF6
Copy CRC 1AFF2EF6
Copy OKTrack 2
Filename K:\EAC Rips\Dead Moon - 1991 - Stranded In The Mystery Zone\02 - Sorrow's Forecast.wav Pre-gap length 0:00:01.84 Peak level 76.5 %
Track quality 100.0 %
Test CRC 5CE1E8CC
Copy CRC 5CE1E8CC
Copy OKTrack 3
Filename K:\EAC Rips\Dead Moon - 1991 - Stranded In The Mystery Zone\03 - Clouds Of Dawn.wav Pre-gap length 0:00:02.97 Peak level 80.4 %
Track quality 100.0 %
Test CRC 0B518310
Copy CRC 0B518310
Copy OKTrack 4
Filename K:\EAC Rips\Dead Moon - 1991 - Stranded In The Mystery Zone\04 - Get On Board.wav Pre-gap length 0:00:01.53 Peak level 79.1 %
Track quality 100.0 %
Test CRC 59DEFA9E
Copy CRC 59DEFA9E
Copy OKTrack 5
Filename K:\EAC Rips\Dead Moon - 1991 - Stranded In The Mystery Zone\05 - Spectacle.wav Pre-gap length 0:00:03.46 Peak level 76.2 %
Track quality 100.0 %
Test CRC EB1884D7
Copy CRC EB1884D7
Copy OKTrack 6
Filename K:\EAC Rips\Dead Moon - 1991 - Stranded In The Mystery Zone\06 - Crazy To The Bone.wav Pre-gap length 0:00:03.29 Peak level 79.6 %
Track quality 100.0 %
Test CRC BE3629C9
Copy CRC BE3629C9
Copy OKTrack 7
Filename K:\EAC Rips\Dead Moon - 1991 - Stranded In The Mystery Zone\07 - Castaways.wav Pre-gap length 0:00:02.30 Peak level 78.5 %
Track quality 99.9 %
Test CRC 7356E46B
Copy CRC 7356E46B
Copy OKTrack 8
Filename K:\EAC Rips\Dead Moon - 1991 - Stranded In The Mystery Zone\08 - Jane.wav Pre-gap length 0:00:03.89 Peak level 69.7 %
Track quality 100.0 %
Test CRC 4580AC61
Copy CRC 4580AC61
Copy OKTrack 9
Filename K:\EAC Rips\Dead Moon - 1991 - Stranded In The Mystery Zone\09 - Down The Road.wav Peak level 82.0 %
Track quality 99.9 %
Test CRC D69BDACF
Copy CRC D69BDACF
Copy OKTrack 10
Filename K:\EAC Rips\Dead Moon - 1991 - Stranded In The Mystery Zone\10 - Pain For Pretty.wav Pre-gap length 0:00:02.30 Peak level 72.6 %
Track quality 100.0 %
Test CRC 897456C2
Copy CRC 897456C2
Copy OKTrack 11
Filename K:\EAC Rips\Dead Moon - 1991 - Stranded In The Mystery Zone\11 - Over The Edge.wav Pre-gap length 0:00:02.50 Peak level 60.6 %
Track quality 100.0 %
Test CRC F518A799
Copy CRC F518A799
Copy OKTrack 12
Filename K:\EAC Rips\Dead Moon - 1991 - Stranded In The Mystery Zone\12 - In The Altitudes.wav Pre-gap length 0:00:02.53 Peak level 87.0 %
Track quality 99.9 %
Test CRC 035264B9
Copy CRC 035264B9
Copy OKNo errors occuredEnd of status report

1992 - Strange Pray Tell [Music Maniac Records, 1992]

Dead Moon - Fire in the Western WorldDead Moon - Until It RainsDead Moon - Can't Do ThatDead Moon - 13 Going on 21Dead Moon - Love Comes OnceDead Moon - Room 213Dead Moon - Going SouthDead Moon - Ill of the DeadDead Moon - Play With FireDead Moon - Don't Look BackDead Moon - Out in the BlueDead Moon - Destination XDead Moon - My EscapeDead Moon - DemonaDead Moon - I Hate the Blues

Отчёт EAC

X Lossless Decoder version 20100918 (122.1)XLD extraction logfile from 2010-09-27 19:22:06 -0700Dead Moon / Strange Pray TellUsed drive : OPTIARC DVD RW AD-5680H (revision 3AHB)Use cdparanoia mode : YES (CDParanoia III 10.2 engine)
Disable audio cache : OK for the drive with cache less than 2750KB
Make use of C2 pointers : NO
Read offset correction : 48
Max retry count : 100
Gap status : Analyzed, AppendedTOC of the extracted CD
Track | Start | Length | Start sector | End sector
---------------------------------------------------------
1 | 00:00:00 | 03:09:60 | 0 | 14234
2 | 03:09:60 | 02:46:52 | 14235 | 26736
3 | 05:56:37 | 02:31:45 | 26737 | 38106
4 | 08:28:07 | 02:47:40 | 38107 | 50671
5 | 11:15:47 | 02:05:13 | 50672 | 60059
6 | 13:20:60 | 03:40:52 | 60060 | 76611
7 | 17:01:37 | 03:50:23 | 76612 | 93884
8 | 20:51:60 | 02:57:22 | 93885 | 107181
9 | 23:49:07 | 01:39:58 | 107182 | 114664
10 | 25:28:65 | 02:42:15 | 114665 | 126829
11 | 28:11:05 | 02:54:45 | 126830 | 139924
12 | 31:05:50 | 03:37:02 | 139925 | 156201
13 | 34:42:52 | 03:09:05 | 156202 | 170381
14 | 37:51:57 | 02:37:13 | 170382 | 182169
15 | 40:28:70 | 02:35:30 | 182170 | 193824All Tracks
Album gain : -2.42 dB
Peak : 0.871826Track 01
Filename : /Users/Erebus/Flac Rips/Strange Pray Tell/01 - Fire in the Western World.flac
Pre-gap length : 00:02:00 Track gain : -4.79 dB
Peak : 0.871826
CRC32 hash (test run) : 39D3D65E
CRC32 hash : 39D3D65E
CRC32 hash (skip zero) : F975B276
AccurateRip signature : A725949F
->Track not present in AccurateRip database.
Statistics
Read error : 0
Skipped (treated as error) : 0
Edge jitter error (maybe fixed) : 0
Atom jitter error (maybe fixed) : 0
Drift error (maybe fixed) : 0
Dropped bytes error (maybe fixed) : 0
Duplicated bytes error (maybe fixed) : 0
Inconsistency in error sectors : 0Track 02
Filename : /Users/Erebus/Flac Rips/Strange Pray Tell/02 - Until It Rains.flac
Pre-gap length : 00:01:63 Track gain : -3.26 dB
Peak : 0.858490
CRC32 hash (test run) : EFA2F009
CRC32 hash : EFA2F009
CRC32 hash (skip zero) : A3E3BCAC
AccurateRip signature : 8449EB9B
->Track not present in AccurateRip database.
Statistics
Read error : 0
Skipped (treated as error) : 0
Edge jitter error (maybe fixed) : 0
Atom jitter error (maybe fixed) : 0
Drift error (maybe fixed) : 0
Dropped bytes error (maybe fixed) : 0
Duplicated bytes error (maybe fixed) : 0
Inconsistency in error sectors : 0Track 03
Filename : /Users/Erebus/Flac Rips/Strange Pray Tell/03 - Can't Do That.flac
Pre-gap length : 00:01:57 Track gain : 2.56 dB
Peak : 0.743835
CRC32 hash (test run) : 8F8398E5
CRC32 hash : 8F8398E5
CRC32 hash (skip zero) : 00FDE0A7
AccurateRip signature : 6AEA2992
->Track not present in AccurateRip database.
Statistics
Read error : 0
Skipped (treated as error) : 0
Edge jitter error (maybe fixed) : 0
Atom jitter error (maybe fixed) : 0
Drift error (maybe fixed) : 0
Dropped bytes error (maybe fixed) : 0
Duplicated bytes error (maybe fixed) : 0
Inconsistency in error sectors : 0Track 04
Filename : /Users/Erebus/Flac Rips/Strange Pray Tell/04 - 13 Going on 21.flac
Pre-gap length : 00:00:60 Track gain : -2.84 dB
Peak : 0.871826
CRC32 hash (test run) : 4A3A1EFD
CRC32 hash : 4A3A1EFD
CRC32 hash (skip zero) : 9F793DDE
AccurateRip signature : DA97E659
->Track not present in AccurateRip database.
Statistics
Read error : 0
Skipped (treated as error) : 0
Edge jitter error (maybe fixed) : 0
Atom jitter error (maybe fixed) : 0
Drift error (maybe fixed) : 0
Dropped bytes error (maybe fixed) : 0
Duplicated bytes error (maybe fixed) : 0
Inconsistency in error sectors : 0Track 05
Filename : /Users/Erebus/Flac Rips/Strange Pray Tell/05 - Love Comes Once.flac Track gain : 1.47 dB
Peak : 0.871826
CRC32 hash (test run) : 6C28E087
CRC32 hash : 6C28E087
CRC32 hash (skip zero) : 71A3B82C
AccurateRip signature : 93127C2B
->Track not present in AccurateRip database.
Statistics
Read error : 0
Skipped (treated as error) : 0
Edge jitter error (maybe fixed) : 0
Atom jitter error (maybe fixed) : 0
Drift error (maybe fixed) : 0
Dropped bytes error (maybe fixed) : 0
Duplicated bytes error (maybe fixed) : 0
Inconsistency in error sectors : 0Track 06
Filename : /Users/Erebus/Flac Rips/Strange Pray Tell/06 - Room 213.flac
Pre-gap length : 00:01:58 Track gain : 1.68 dB
Peak : 0.839752
CRC32 hash (test run) : F7A6B6E8
CRC32 hash : F7A6B6E8
CRC32 hash (skip zero) : 3C029408
AccurateRip signature : 6DFBD1C6
->Track not present in AccurateRip database.
Statistics
Read error : 0
Skipped (treated as error) : 0
Edge jitter error (maybe fixed) : 0
Atom jitter error (maybe fixed) : 0
Drift error (maybe fixed) : 0
Dropped bytes error (maybe fixed) : 0
Duplicated bytes error (maybe fixed) : 0
Inconsistency in error sectors : 0Track 07
Filename : /Users/Erebus/Flac Rips/Strange Pray Tell/07 - Going South.flac
Pre-gap length : 00:01:55 Track gain : -2.45 dB
Peak : 0.871796
CRC32 hash (test run) : 3DD91BED
CRC32 hash : 3DD91BED
CRC32 hash (skip zero) : C1FCF63E
AccurateRip signature : D80BF243
->Track not present in AccurateRip database.
Statistics
Read error : 0
Skipped (treated as error) : 0
Edge jitter error (maybe fixed) : 0
Atom jitter error (maybe fixed) : 0
Drift error (maybe fixed) : 0
Dropped bytes error (maybe fixed) : 0
Duplicated bytes error (maybe fixed) : 0
Inconsistency in error sectors : 0Track 08
Filename : /Users/Erebus/Flac Rips/Strange Pray Tell/08 - Ill of the Dead.flac
Pre-gap length : 00:02:58 Track gain : -1.56 dB
Peak : 0.849304
CRC32 hash (test run) : 370954F9
CRC32 hash : 370954F9
CRC32 hash (skip zero) : 2A4705FA
AccurateRip signature : 5F2C5F2D
->Track not present in AccurateRip database.
Statistics
Read error : 0
Skipped (treated as error) : 0
Edge jitter error (maybe fixed) : 0
Atom jitter error (maybe fixed) : 0
Drift error (maybe fixed) : 0
Dropped bytes error (maybe fixed) : 0
Duplicated bytes error (maybe fixed) : 0
Inconsistency in error sectors : 0Track 09
Filename : /Users/Erebus/Flac Rips/Strange Pray Tell/09 - Play With Fire.flac
Pre-gap length : 00:01:57 Track gain : -2.49 dB
Peak : 0.871826
CRC32 hash (test run) : 1E932CC1
CRC32 hash : 1E932CC1
CRC32 hash (skip zero) : 1E74EB1F
AccurateRip signature : F9B61AEA
->Track not present in AccurateRip database.
Statistics
Read error : 0
Skipped (treated as error) : 0
Edge jitter error (maybe fixed) : 0
Atom jitter error (maybe fixed) : 0
Drift error (maybe fixed) : 0
Dropped bytes error (maybe fixed) : 0
Duplicated bytes error (maybe fixed) : 0
Inconsistency in error sectors : 0Track 10
Filename : /Users/Erebus/Flac Rips/Strange Pray Tell/10 - Don't Look Back.flac
Pre-gap length : 00:02:60 Track gain : -4.47 dB
Peak : 0.871826
CRC32 hash (test run) : 0574C364
CRC32 hash : 0574C364
CRC32 hash (skip zero) : A5A73AEA
AccurateRip signature : F9154BF4
->Track not present in AccurateRip database.
Statistics
Read error : 0
Skipped (treated as error) : 0
Edge jitter error (maybe fixed) : 0
Atom jitter error (maybe fixed) : 0
Drift error (maybe fixed) : 0
Dropped bytes error (maybe fixed) : 0
Duplicated bytes error (maybe fixed) : 0
Inconsistency in error sectors : 0Track 11
Filename : /Users/Erebus/Flac Rips/Strange Pray Tell/11 - Out in the Blue.flac
Pre-gap length : 00:02:63 Track gain : 0.22 dB
Peak : 0.871826
CRC32 hash (test run) : EB5BDFF4
CRC32 hash : EB5BDFF4
CRC32 hash (skip zero) : B50642B1
AccurateRip signature : 8D2218EC
->Track not present in AccurateRip database.
Statistics
Read error : 0
Skipped (treated as error) : 0
Edge jitter error (maybe fixed) : 0
Atom jitter error (maybe fixed) : 0
Drift error (maybe fixed) : 0
Dropped bytes error (maybe fixed) : 0
Duplicated bytes error (maybe fixed) : 0
Inconsistency in error sectors : 0Track 12
Filename : /Users/Erebus/Flac Rips/Strange Pray Tell/12 - Destination X.flac
Pre-gap length : 00:01:60 Track gain : -2.01 dB
Peak : 0.871796
CRC32 hash (test run) : 607F7B7B
CRC32 hash : 607F7B7B
CRC32 hash (skip zero) : E74E1BA4
AccurateRip signature : 95B4010D
->Track not present in AccurateRip database.
Statistics
Read error : 0
Skipped (treated as error) : 0
Edge jitter error (maybe fixed) : 0
Atom jitter error (maybe fixed) : 0
Drift error (maybe fixed) : 0
Dropped bytes error (maybe fixed) : 0
Duplicated bytes error (maybe fixed) : 0
Inconsistency in error sectors : 0Track 13
Filename : /Users/Erebus/Flac Rips/Strange Pray Tell/13 - My Escape.flac
Pre-gap length : 00:02:60 Track gain : -1.31 dB
Peak : 0.561249
CRC32 hash (test run) : 1B1CCE1F
CRC32 hash : 1B1CCE1F
CRC32 hash (skip zero) : 1905E5D7
AccurateRip signature : 0D3E0382
->Track not present in AccurateRip database.
Statistics
Read error : 0
Skipped (treated as error) : 0
Edge jitter error (maybe fixed) : 0
Atom jitter error (maybe fixed) : 0
Drift error (maybe fixed) : 0
Dropped bytes error (maybe fixed) : 0
Duplicated bytes error (maybe fixed) : 0
Inconsistency in error sectors : 0Track 14
Filename : /Users/Erebus/Flac Rips/Strange Pray Tell/14 - Demona.flac
Pre-gap length : 00:02:57 Track gain : -4.25 dB
Peak : 0.871826
CRC32 hash (test run) : 55EF2ECE
CRC32 hash : 55EF2ECE
CRC32 hash (skip zero) : 1242490D
AccurateRip signature : 78A43549
->Track not present in AccurateRip database.
Statistics
Read error : 0
Skipped (treated as error) : 0
Edge jitter error (maybe fixed) : 0
Atom jitter error (maybe fixed) : 0
Drift error (maybe fixed) : 0
Dropped bytes error (maybe fixed) : 0
Duplicated bytes error (maybe fixed) : 0
Inconsistency in error sectors : 0Track 15
Filename : /Users/Erebus/Flac Rips/Strange Pray Tell/15 - I Hate the Blues.flac
Pre-gap length : 00:02:58 Track gain : 1.00 dB
Peak : 0.859528
CRC32 hash (test run) : A591158D
CRC32 hash : A591158D
CRC32 hash (skip zero) : 25B4DE9F
AccurateRip signature : 40EBC816
->Track not present in AccurateRip database.
Statistics
Read error : 0
Skipped (treated as error) : 0
Edge jitter error (maybe fixed) : 0
Atom jitter error (maybe fixed) : 0
Drift error (maybe fixed) : 0
Dropped bytes error (maybe fixed) : 0
Duplicated bytes error (maybe fixed) : 0
Inconsistency in error sectors : 0No errors occurredEnd of status report

1994 - Crack In The System [Music Maniac Records, 1994]

Dead Moon - Poor BornDead Moon - Cast Will ChangeDead Moon - Too Far GoneDead Moon - Day After DayDead Moon - Two Fell AwayDead Moon - Killing MeDead Moon - It's O.K.Dead Moon - Back to BackDead Moon - The Dead LineDead Moon - Times Are a ChangingDead Moon - Unknown Passage

Отчёт EAC

EAC extraction logfile from 9. December 2008, 17:42 for CD
Dead Moon / Crack In The SystemUsed drive : HL-DT-STDVD-ROM GDR8163B Adapter: 1 ID: 0
Read mode : Secure with NO C2, accurate stream, disable cache
Read offset correction : 102
Overread into Lead-In and Lead-Out : NoUsed output format : C:\Program Files\Exact Audio Copy\flac.exe (User Defined Encoder)
128 kBit/s
Additional command line options : -V -8 -T "artist=%a" -T "title=%t" -T "album=%g" -T "date=%y" -T "tracknumber=%n" -T "genre=%m" %sOther options :
Fill up missing offset samples with silence : Yes
Delete leading and trailing silent blocks : No
Native Win32 interface for Win NT & 2000Track 1
Filename K:\EAC Rips\Dead Moon - 1994 - Crack In The System\01 - Poor Born.wav Pre-gap length 0:00:02.00 Peak level 100.0 %
Track quality 100.0 %
Test CRC FBDFA827
Copy CRC FBDFA827
Copy OKTrack 2
Filename K:\EAC Rips\Dead Moon - 1994 - Crack In The System\02 - Cast Will Change.wav Pre-gap length 0:00:01.73 Peak level 100.0 %
Track quality 99.9 %
Test CRC 8E5D0841
Copy CRC 8E5D0841
Copy OKTrack 3
Filename K:\EAC Rips\Dead Moon - 1994 - Crack In The System\03 - Too Far Gone.wav Pre-gap length 0:00:01.73 Peak level 100.0 %
Track quality 100.0 %
Test CRC 1AF9F53B
Copy CRC 1AF9F53B
Copy OKTrack 4
Filename K:\EAC Rips\Dead Moon - 1994 - Crack In The System\04 - Day After Day.wav Peak level 100.0 %
Track quality 100.0 %
Test CRC 0235AB44
Copy CRC 0235AB44
Copy OKTrack 5
Filename K:\EAC Rips\Dead Moon - 1994 - Crack In The System\05 - Two Fell Away.wav Pre-gap length 0:00:01.60 Peak level 100.0 %
Track quality 100.0 %
Test CRC 1A4F9946
Copy CRC 1A4F9946
Copy OKTrack 6
Filename K:\EAC Rips\Dead Moon - 1994 - Crack In The System\06 - Killing Me.wav Pre-gap length 0:00:02.06 Peak level 100.0 %
Track quality 100.0 %
Test CRC 23B07635
Copy CRC 23B07635
Copy OKTrack 7
Filename K:\EAC Rips\Dead Moon - 1994 - Crack In The System\07 - It's O.K..wav Pre-gap length 0:00:02.40 Peak level 100.0 %
Track quality 100.0 %
Test CRC D490FCE3
Copy CRC D490FCE3
Copy OKTrack 8
Filename K:\EAC Rips\Dead Moon - 1994 - Crack In The System\08 - Back to Back.wav Pre-gap length 0:00:01.53 Peak level 100.0 %
Track quality 99.9 %
Test CRC 6527A7C5
Copy CRC 6527A7C5
Copy OKTrack 9
Filename K:\EAC Rips\Dead Moon - 1994 - Crack In The System\09 - The Dead Line.wav Pre-gap length 0:00:03.17 Peak level 100.0 %
Track quality 99.9 %
Test CRC 2A5BC321
Copy CRC 2A5BC321
Copy OKTrack 10
Filename K:\EAC Rips\Dead Moon - 1994 - Crack In The System\10 - Times Are a Changing.wav Pre-gap length 0:00:02.22 Peak level 100.0 %
Track quality 100.0 %
Test CRC EA6AB199
Copy CRC EA6AB199
Copy OKTrack 11
Filename K:\EAC Rips\Dead Moon - 1994 - Crack In The System\11 - Unknown Passage.wav Pre-gap length 0:00:01.96 Peak level 100.0 %
Track quality 100.0 %
Test CRC F97D29BA
Copy CRC F97D29BA
Copy OKNo errors occuredEnd of status report

1995 - Nervous Sooner Changes [Music Maniac Records, 1995]

Dead Moon - Diamonds In The RoughDead Moon - Say It Isn't SoDead Moon - I Won't Be The OneDead Moon - Can't Let GoDead Moon - Running Out Of TimeDead Moon - Psychodelic NightmareDead Moon - Area 51Dead Moon - Somewhere Far AwayDead Moon - I'm Not AfraidDead Moon - Windows Of Time

Отчёт EAC

EAC extraction logfile from 7. December 2008, 17:34 for CD
Dead Moon / Nervous Sooner ChangesUsed drive : HL-DT-STDVD-ROM GDR8163B Adapter: 1 ID: 0
Read mode : Secure with NO C2, accurate stream, disable cache
Read offset correction : 102
Overread into Lead-In and Lead-Out : NoUsed output format : C:\Program Files\Exact Audio Copy\flac.exe (User Defined Encoder)
128 kBit/s
Additional command line options : -V -8 -T "artist=%a" -T "title=%t" -T "album=%g" -T "date=%y" -T "tracknumber=%n" -T "genre=%m" %sOther options :
Fill up missing offset samples with silence : Yes
Delete leading and trailing silent blocks : No
Native Win32 interface for Win NT & 2000Track 1
Filename K:\EAC Rips\Dead Moon - 1995 - Nervous Sooner Changes\01 - Diamonds In The Rough.wav Pre-gap length 0:00:02.00 Peak level 99.3 %
Track quality 100.0 %
Test CRC 1BB32F07
Copy CRC 1BB32F07
Copy OKTrack 2
Filename K:\EAC Rips\Dead Moon - 1995 - Nervous Sooner Changes\02 - Say It Isn't So.wav Peak level 99.3 %
Track quality 100.0 %
Test CRC 1960AD83
Copy CRC 1960AD83
Copy OKTrack 3
Filename K:\EAC Rips\Dead Moon - 1995 - Nervous Sooner Changes\03 - I Won't Be The One.wav Peak level 99.6 %
Track quality 100.0 %
Test CRC 0C6D56E2
Copy CRC 0C6D56E2
Copy OKTrack 4
Filename K:\EAC Rips\Dead Moon - 1995 - Nervous Sooner Changes\04 - Can't Let Go.wav Peak level 99.6 %
Track quality 100.0 %
Test CRC ECC21F58
Copy CRC ECC21F58
Copy OKTrack 5
Filename K:\EAC Rips\Dead Moon - 1995 - Nervous Sooner Changes\05 - Running Out Of Time.wav Peak level 99.6 %
Track quality 100.0 %
Test CRC AFD9171F
Copy CRC AFD9171F
Copy OKTrack 6
Filename K:\EAC Rips\Dead Moon - 1995 - Nervous Sooner Changes\06 - Psychodelic Nightmare.wav Peak level 99.6 %
Track quality 99.9 %
Test CRC 410F8306
Copy CRC 410F8306
Copy OKTrack 7
Filename K:\EAC Rips\Dead Moon - 1995 - Nervous Sooner Changes\07 - Area 51.wav Peak level 99.3 %
Track quality 100.0 %
Test CRC 27D01E17
Copy CRC 27D01E17
Copy OKTrack 8
Filename K:\EAC Rips\Dead Moon - 1995 - Nervous Sooner Changes\08 - Somewhere Far Away.wav Peak level 99.6 %
Track quality 100.0 %
Test CRC 2445CBBE
Copy CRC 2445CBBE
Copy OKTrack 9
Filename K:\EAC Rips\Dead Moon - 1995 - Nervous Sooner Changes\09 - I'm Not Afraid.wav Peak level 99.6 %
Track quality 100.0 %
Test CRC 96B8218C
Copy CRC 96B8218C
Copy OKTrack 10
Filename K:\EAC Rips\Dead Moon - 1995 - Nervous Sooner Changes\10 - Windows Of Time.wav Peak level 100.0 %
Track quality 100.0 %
Test CRC C0811709
Copy CRC C0811709
Copy OKNo errors occuredEnd of status report

1999 - Destination X [Music Maniac Records, 1999]

Dead Moon - Down To The DogsDead Moon - It's A Long Way To The TopDead Moon - To Nowhere DownDead Moon - On Another PlaneDead Moon - Bad CaseDead Moon - Raise Up The DeadDead Moon - RescueDead Moon - Only Want To Be Your ManDead Moon - As Teardrops BreakDead Moon - Point Of No ReturnDead Moon - Last Train

Отчёт EAC

AC extraction logfile from 12. December 2008, 14:43 for CD
Dead Moon / Destination XUsed drive : HL-DT-STDVD-ROM GDR8163B Adapter: 1 ID: 0
Read mode : Secure with NO C2, accurate stream, disable cache
Read offset correction : 102
Overread into Lead-In and Lead-Out : NoUsed output format : C:\Program Files\Exact Audio Copy\flac.exe (User Defined Encoder)
128 kBit/s
Additional command line options : -V -8 -T "artist=%a" -T "title=%t" -T "album=%g" -T "date=%y" -T "tracknumber=%n" -T "genre=%m" %sOther options :
Fill up missing offset samples with silence : Yes
Delete leading and trailing silent blocks : No
Native Win32 interface for Win NT & 2000Track 1
Filename K:\EAC Rips\Dead Moon - 1999 - Destination X\01 - Down To The Dogs.wav Pre-gap length 0:00:02.00 Peak level 100.0 %
Track quality 99.9 %
Test CRC FAC68AFD
Copy CRC FAC68AFD
Copy OKTrack 2
Filename K:\EAC Rips\Dead Moon - 1999 - Destination X\02 - It's A Long Way To The Top.wav Peak level 96.6 %
Track quality 100.0 %
Test CRC 8C6701F3
Copy CRC 8C6701F3
Copy OKTrack 3
Filename K:\EAC Rips\Dead Moon - 1999 - Destination X\03 - To Nowhere Down.wav Peak level 96.6 %
Track quality 100.0 %
Test CRC 8735DA32
Copy CRC 8735DA32
Copy OKTrack 4
Filename K:\EAC Rips\Dead Moon - 1999 - Destination X\04 - On Another Plane.wav Peak level 96.6 %
Track quality 100.0 %
Test CRC 29639591
Copy CRC 29639591
Copy OKTrack 5
Filename K:\EAC Rips\Dead Moon - 1999 - Destination X\05 - Bad Case.wav Peak level 96.6 %
Track quality 100.0 %
Test CRC 9ABB436F
Copy CRC 9ABB436F
Copy OKTrack 6
Filename K:\EAC Rips\Dead Moon - 1999 - Destination X\06 - Raise Up The Dead.wav Peak level 96.6 %
Track quality 100.0 %
Test CRC 9B39EB54
Copy CRC 9B39EB54
Copy OKTrack 7
Filename K:\EAC Rips\Dead Moon - 1999 - Destination X\07 - Rescue.wav Peak level 96.6 %
Track quality 100.0 %
Test CRC 0D1BC5E8
Copy CRC 0D1BC5E8
Copy OKTrack 8
Filename K:\EAC Rips\Dead Moon - 1999 - Destination X\08 - Only Want To Be Your Man.wav Peak level 96.6 %
Track quality 100.0 %
Test CRC 88C975B5
Copy CRC 88C975B5
Copy OKTrack 9
Filename K:\EAC Rips\Dead Moon - 1999 - Destination X\09 - As Teardrops Break.wav Peak level 96.6 %
Track quality 100.0 %
Test CRC 258CA7FB
Copy CRC 258CA7FB
Copy OKTrack 10
Filename K:\EAC Rips\Dead Moon - 1999 - Destination X\10 - Point Of No Return.wav Peak level 96.6 %
Track quality 100.0 %
Test CRC D65D6CAB
Copy CRC D65D6CAB
Copy OKTrack 11
Filename K:\EAC Rips\Dead Moon - 1999 - Destination X\11 - Last Train.wav Peak level 96.6 %
Track quality 100.0 %
Test CRC 4B331E00
Copy CRC 4B331E00
Copy OKNo errors occuredEnd of status report

2000 - Trash & Burn [Music Maniac Records, 2001]

Dead Moon - RicochetDead Moon - The Way It IsDead Moon - One-Way TicketDead Moon - These Times With YouDead Moon - Shadows Of The NightDead Moon - 40 Miles Of Bad RoadDead Moon - Out Of ReachDead Moon - Never AgainDead Moon - JanusDead Moon - SabotageDead Moon - Shot Away

Отчёт EAC

X Lossless Decoder version 20101010 (123.3)XLD extraction logfile from 2010-10-11 17:07:30 +0200Dead Moon / Trash & BurnUsed drive : HL-DT-ST DVDRW GSA-S10N (revision AP12)Use cdparanoia mode : YES (CDParanoia III 10.2 engine)
Disable audio cache : OK for the drive with cache less than 2750KB
Make use of C2 pointers : NO
Read offset correction : 667
Max retry count : 100
Gap status : Analyzed, AppendedTOC of the extracted CD
Track | Start | Length | Start sector | End sector
---------------------------------------------------------
1 | 00:01:00 | 03:03:50 | 75 | 13849
2 | 03:04:50 | 02:10:32 | 13850 | 23631
3 | 05:15:07 | 02:29:41 | 23632 | 34847
4 | 07:44:48 | 03:45:71 | 34848 | 51793
5 | 11:30:44 | 02:57:55 | 51794 | 65123
6 | 14:28:24 | 03:25:02 | 65124 | 80500
7 | 17:53:26 | 02:32:24 | 80501 | 91924
8 | 20:25:50 | 03:52:61 | 91925 | 109385
9 | 24:18:36 | 03:11:70 | 109386 | 123780
10 | 27:30:31 | 02:18:04 | 123781 | 134134
11 | 29:48:35 | 02:41:27 | 134135 | 146236List of alternate offset correction values
# | Absolute | Relative | Confidence
------------------------------------------
1 | 677 | 10 | 2All Tracks
Album gain : -8.11 dB
Peak : 0.999969Track 01
Filename : /Users/wakeupscreaming/Ripped/XLD/01 - Ricochet.flac
Pre-gap length : 00:03:00 Track gain : -8.93 dB
Peak : 0.999969
CRC32 hash (test run) : DC2ECBEC
CRC32 hash : DC2ECBEC
CRC32 hash (skip zero) : DE6B08BB
AccurateRip signature : 3B52253B
->Accurately ripped! (confidence 3)
Statistics
Read error : 0
Skipped (treated as error) : 0
Edge jitter error (maybe fixed) : 0
Atom jitter error (maybe fixed) : 0
Drift error (maybe fixed) : 0
Dropped bytes error (maybe fixed) : 0
Duplicated bytes error (maybe fixed) : 0
Inconsistency in error sectors : 0Track 02
Filename : /Users/wakeupscreaming/Ripped/XLD/02 - The Way It Is.flac
Pre-gap length : 00:01:56 Track gain : -6.74 dB
Peak : 0.999969
CRC32 hash (test run) : D2983A64
CRC32 hash : D2983A64
CRC32 hash (skip zero) : F502A06E
AccurateRip signature : F6C69845
->Accurately ripped! (confidence 3)
Statistics
Read error : 0
Skipped (treated as error) : 0
Edge jitter error (maybe fixed) : 0
Atom jitter error (maybe fixed) : 0
Drift error (maybe fixed) : 0
Dropped bytes error (maybe fixed) : 0
Duplicated bytes error (maybe fixed) : 0
Inconsistency in error sectors : 0Track 03
Filename : /Users/wakeupscreaming/Ripped/XLD/03 - One-Way Ticket.flac
Pre-gap length : 00:01:45 Track gain : -7.02 dB
Peak : 0.999939
CRC32 hash (test run) : 4DD218F7
CRC32 hash : 4DD218F7
CRC32 hash (skip zero) : A49CAAB7
AccurateRip signature : 07F09F0E
->Accurately ripped! (confidence 3)
Statistics
Read error : 0
Skipped (treated as error) : 0
Edge jitter error (maybe fixed) : 0
Atom jitter error (maybe fixed) : 0
Drift error (maybe fixed) : 0
Dropped bytes error (maybe fixed) : 0
Duplicated bytes error (maybe fixed) : 0
Inconsistency in error sectors : 0Track 04
Filename : /Users/wakeupscreaming/Ripped/XLD/04 - These Times With You.flac
Pre-gap length : 00:01:49 Track gain : -7.33 dB
Peak : 0.999939
CRC32 hash (test run) : E88712FF
CRC32 hash : E88712FF
CRC32 hash (skip zero) : DE648D09
AccurateRip signature : 53D779D1
->Accurately ripped! (confidence 3)
Statistics
Read error : 0
Skipped (treated as error) : 0
Edge jitter error (maybe fixed) : 0
Atom jitter error (maybe fixed) : 0
Drift error (maybe fixed) : 0
Dropped bytes error (maybe fixed) : 0
Duplicated bytes error (maybe fixed) : 0
Inconsistency in error sectors : 0Track 05
Filename : /Users/wakeupscreaming/Ripped/XLD/05 - Shadows Of The Night.flac
Pre-gap length : 00:01:45 Track gain : -7.33 dB
Peak : 0.999969
CRC32 hash (test run) : 55E945AA
CRC32 hash : 55E945AA
CRC32 hash (skip zero) : 4C548EAF
AccurateRip signature : 292248FE
->Accurately ripped! (confidence 3)
Statistics
Read error : 0
Skipped (treated as error) : 0
Edge jitter error (maybe fixed) : 0
Atom jitter error (maybe fixed) : 0
Drift error (maybe fixed) : 0
Dropped bytes error (maybe fixed) : 0
Duplicated bytes error (maybe fixed) : 0
Inconsistency in error sectors : 0Track 06
Filename : /Users/wakeupscreaming/Ripped/XLD/06 - 40 Miles Of Bad Road.flac
Pre-gap length : 00:03:00 Track gain : -9.00 dB
Peak : 0.999969
CRC32 hash (test run) : 8E4A83E4
CRC32 hash : 8E4A83E4
CRC32 hash (skip zero) : 78B0204C
AccurateRip signature : A7EACEC5
->Accurately ripped! (confidence 3)
Statistics
Read error : 0
Skipped (treated as error) : 0
Edge jitter error (maybe fixed) : 0
Atom jitter error (maybe fixed) : 0
Drift error (maybe fixed) : 0
Dropped bytes error (maybe fixed) : 0
Duplicated bytes error (maybe fixed) : 0
Inconsistency in error sectors : 0Track 07
Filename : /Users/wakeupscreaming/Ripped/XLD/07 - Out Of Reach.flac
Pre-gap length : 00:01:45 Track gain : -8.75 dB
Peak : 0.999969
CRC32 hash (test run) : 3D04B5FE
CRC32 hash : 3D04B5FE
CRC32 hash (skip zero) : 5E898EE2
AccurateRip signature : 1A80E5A9
->Accurately ripped! (confidence 3)
Statistics
Read error : 0
Skipped (treated as error) : 0
Edge jitter error (maybe fixed) : 0
Atom jitter error (maybe fixed) : 0
Drift error (maybe fixed) : 0
Dropped bytes error (maybe fixed) : 0
Duplicated bytes error (maybe fixed) : 0
Inconsistency in error sectors : 0Track 08
Filename : /Users/wakeupscreaming/Ripped/XLD/08 - Never Again.flac
Pre-gap length : 00:01:45 Track gain : -8.39 dB
Peak : 0.999969
CRC32 hash (test run) : 293AC52C
CRC32 hash : 293AC52C
CRC32 hash (skip zero) : 21635716
AccurateRip signature : F42993B5
->Accurately ripped! (confidence 3)
Statistics
Read error : 0
Skipped (treated as error) : 0
Edge jitter error (maybe fixed) : 0
Atom jitter error (maybe fixed) : 0
Drift error (maybe fixed) : 0
Dropped bytes error (maybe fixed) : 0
Duplicated bytes error (maybe fixed) : 0
Inconsistency in error sectors : 0Track 09
Filename : /Users/wakeupscreaming/Ripped/XLD/09 - Janus.flac
Pre-gap length : 00:01:45 Track gain : -7.46 dB
Peak : 0.904724
CRC32 hash (test run) : 29425491
CRC32 hash : 29425491
CRC32 hash (skip zero) : FB7CA2A0
AccurateRip signature : 179E683D
->Accurately ripped! (confidence 3)
Statistics
Read error : 0
Skipped (treated as error) : 0
Edge jitter error (maybe fixed) : 0
Atom jitter error (maybe fixed) : 0
Drift error (maybe fixed) : 0
Dropped bytes error (maybe fixed) : 0
Duplicated bytes error (maybe fixed) : 0
Inconsistency in error sectors : 0Track 10
Filename : /Users/wakeupscreaming/Ripped/XLD/10 - Sabotage.flac
Pre-gap length : 00:01:45 Track gain : -9.22 dB
Peak : 0.999969
CRC32 hash (test run) : A6303FA4
CRC32 hash : A6303FA4
CRC32 hash (skip zero) : 2476F95A
AccurateRip signature : FD992E1F
->Accurately ripped! (confidence 3)
Statistics
Read error : 0
Skipped (treated as error) : 0
Edge jitter error (maybe fixed) : 0
Atom jitter error (maybe fixed) : 0
Drift error (maybe fixed) : 0
Dropped bytes error (maybe fixed) : 0
Duplicated bytes error (maybe fixed) : 0
Inconsistency in error sectors : 0Track 11
Filename : /Users/wakeupscreaming/Ripped/XLD/11 - Shot Away.flac
Pre-gap length : 00:01:45 Track gain : -7.44 dB
Peak : 0.999969
CRC32 hash (test run) : 73BCDCF4
CRC32 hash : 73BCDCF4
CRC32 hash (skip zero) : 27913D9B
AccurateRip signature : 273A0B4B
->Accurately ripped! (confidence 3)
Statistics
Read error : 0
Skipped (treated as error) : 0
Edge jitter error (maybe fixed) : 0
Atom jitter error (maybe fixed) : 0
Drift error (maybe fixed) : 0
Dropped bytes error (maybe fixed) : 0
Duplicated bytes error (maybe fixed) : 0
Inconsistency in error sectors : 0No errors occurredEnd of status report

2004 - Dead Ahead [Music Maniac Records, 2004]

Dead Moon - Signs of DepartureDead Moon - One WorldDead Moon - An Occupation With YouDead Moon - Dawning of the DeadDead Moon - Already GoneDead Moon - War Is BlindDead Moon - Go My WayDead Moon - On And OnDead Moon - The 99'sDead Moon - All Sold OutDead Moon - In the Waiting

Отчёт EAC

X Lossless Decoder version 20101010 (123.3)XLD extraction logfile from 2010-10-12 13:01:19 +0200Dead Moon / Dead AheadUsed drive : HL-DT-ST DVDRW GSA-S10N (revision AP12)Use cdparanoia mode : YES (CDParanoia III 10.2 engine)
Disable audio cache : OK for the drive with cache less than 2750KB
Make use of C2 pointers : NO
Read offset correction : 667
Max retry count : 100
Gap status : Analyzed, AppendedTOC of the extracted CD
Track | Start | Length | Start sector | End sector
---------------------------------------------------------
1 | 00:00:00 | 02:01:71 | 0 | 9145
2 | 02:01:71 | 03:27:63 | 9146 | 24733
3 | 05:29:59 | 02:59:27 | 24734 | 38185
4 | 08:29:11 | 02:59:35 | 38186 | 51645
5 | 11:28:46 | 03:33:65 | 51646 | 67685
6 | 15:02:36 | 03:15:20 | 67686 | 82330
7 | 18:17:56 | 02:28:29 | 82331 | 93459
8 | 20:46:10 | 03:23:01 | 93460 | 108685
9 | 24:09:11 | 02:39:55 | 108686 | 120665
10 | 26:48:66 | 03:24:39 | 120666 | 136004
11 | 30:13:30 | 03:20:33 | 136005 | 151037All Tracks
Album gain : -8.93 dB
Peak : 0.987488Track 01
Filename : /Users/wakeupscreaming/Ripped/XLD/01 - Signs of Departure.flac
Pre-gap length : 00:02:00 Track gain : -9.30 dB
Peak : 0.987488
CRC32 hash (test run) : 96DA2A2E
CRC32 hash : 96DA2A2E
CRC32 hash (skip zero) : 73B6E367
AccurateRip signature : 3160DDF0
->Accurately ripped! (confidence 3)
Statistics
Read error : 0
Skipped (treated as error) : 0
Edge jitter error (maybe fixed) : 0
Atom jitter error (maybe fixed) : 0
Drift error (maybe fixed) : 0
Dropped bytes error (maybe fixed) : 0
Duplicated bytes error (maybe fixed) : 0
Inconsistency in error sectors : 0Track 02
Filename : /Users/wakeupscreaming/Ripped/XLD/02 - One World.flac
Pre-gap length : 00:01:00 Track gain : -9.78 dB
Peak : 0.982819
CRC32 hash (test run) : 32F3A0F1
CRC32 hash : 32F3A0F1
CRC32 hash (skip zero) : 392309B6
AccurateRip signature : 8A2A55B1
->Accurately ripped! (confidence 3)
Statistics
Read error : 0
Skipped (treated as error) : 0
Edge jitter error (maybe fixed) : 0
Atom jitter error (maybe fixed) : 0
Drift error (maybe fixed) : 0
Dropped bytes error (maybe fixed) : 0
Duplicated bytes error (maybe fixed) : 0
Inconsistency in error sectors : 0Track 03
Filename : /Users/wakeupscreaming/Ripped/XLD/03 - An Occupation With You.flac
Pre-gap length : 00:01:00 Track gain : -7.19 dB
Peak : 0.977051
CRC32 hash (test run) : 29C215E5
CRC32 hash : 29C215E5
CRC32 hash (skip zero) : 47754513
AccurateRip signature : D98DE14B
->Accurately ripped! (confidence 3)
Statistics
Read error : 0
Skipped (treated as error) : 0
Edge jitter error (maybe fixed) : 0
Atom jitter error (maybe fixed) : 0
Drift error (maybe fixed) : 0
Dropped bytes error (maybe fixed) : 0
Duplicated bytes error (maybe fixed) : 0
Inconsistency in error sectors : 0Track 04
Filename : /Users/wakeupscreaming/Ripped/XLD/04 - Dawning of the Dead.flac
Pre-gap length : 00:01:00 Track gain : -7.95 dB
Peak : 0.954620
CRC32 hash (test run) : 3F227969
CRC32 hash : 3F227969
CRC32 hash (skip zero) : 29905C09
AccurateRip signature : 776CC2CD
->Accurately ripped! (confidence 3)
Statistics
Read error : 0
Skipped (treated as error) : 0
Edge jitter error (maybe fixed) : 0
Atom jitter error (maybe fixed) : 0
Drift error (maybe fixed) : 0
Dropped bytes error (maybe fixed) : 0
Duplicated bytes error (maybe fixed) : 0
Inconsistency in error sectors : 0Track 05
Filename : /Users/wakeupscreaming/Ripped/XLD/05 - Already Gone.flac
Pre-gap length : 00:01:00 Track gain : -7.83 dB
Peak : 0.982025
CRC32 hash (test run) : 94282366
CRC32 hash : 94282366
CRC32 hash (skip zero) : 31925D94
AccurateRip signature : B1078746
->Accurately ripped! (confidence 3)
Statistics
Read error : 0
Skipped (treated as error) : 0
Edge jitter error (maybe fixed) : 0
Atom jitter error (maybe fixed) : 0
Drift error (maybe fixed) : 0
Dropped bytes error (maybe fixed) : 0
Duplicated bytes error (maybe fixed) : 0
Inconsistency in error sectors : 0Track 06
Filename : /Users/wakeupscreaming/Ripped/XLD/06 - War Is Blind.flac
Pre-gap length : 00:01:00 Track gain : -8.34 dB
Peak : 0.985291
CRC32 hash (test run) : 4607F6DB
CRC32 hash : 4607F6DB
CRC32 hash (skip zero) : C05FC278
AccurateRip signature : 90892FC3
->Accurately ripped! (confidence 3)
Statistics
Read error : 0
Skipped (treated as error) : 0
Edge jitter error (maybe fixed) : 0
Atom jitter error (maybe fixed) : 0
Drift error (maybe fixed) : 0
Dropped bytes error (maybe fixed) : 0
Duplicated bytes error (maybe fixed) : 0
Inconsistency in error sectors : 0Track 07
Filename : /Users/wakeupscreaming/Ripped/XLD/07 - Go My Way.flac
Pre-gap length : 00:02:00 Track gain : -8.65 dB
Peak : 0.976440
CRC32 hash (test run) : 76EDFD90
CRC32 hash : 76EDFD90
CRC32 hash (skip zero) : BD858C3E
AccurateRip signature : 62880ABC
->Accurately ripped! (confidence 3)
Statistics
Read error : 0
Skipped (treated as error) : 0
Edge jitter error (maybe fixed) : 0
Atom jitter error (maybe fixed) : 0
Drift error (maybe fixed) : 0
Dropped bytes error (maybe fixed) : 0
Duplicated bytes error (maybe fixed) : 0
Inconsistency in error sectors : 0Track 08
Filename : /Users/wakeupscreaming/Ripped/XLD/08 - On And On.flac
Pre-gap length : 00:02:00 Track gain : -8.30 dB
Peak : 0.986633
CRC32 hash (test run) : 5010E839
CRC32 hash : 5010E839
CRC32 hash (skip zero) : 4FA0030A
AccurateRip signature : 279DCD80
->Accurately ripped! (confidence 3)
Statistics
Read error : 0
Skipped (treated as error) : 0
Edge jitter error (maybe fixed) : 0
Atom jitter error (maybe fixed) : 0
Drift error (maybe fixed) : 0
Dropped bytes error (maybe fixed) : 0
Duplicated bytes error (maybe fixed) : 0
Inconsistency in error sectors : 0Track 09
Filename : /Users/wakeupscreaming/Ripped/XLD/09 - The 99's.flac
Pre-gap length : 00:01:37 Track gain : -9.69 dB
Peak : 0.977356
CRC32 hash (test run) : 76F1DEF7
CRC32 hash : 76F1DEF7
CRC32 hash (skip zero) : 5159DB6E
AccurateRip signature : 7F6E82C7
->Accurately ripped! (confidence 3)
Statistics
Read error : 0
Skipped (treated as error) : 0
Edge jitter error (maybe fixed) : 0
Atom jitter error (maybe fixed) : 0
Drift error (maybe fixed) : 0
Dropped bytes error (maybe fixed) : 0
Duplicated bytes error (maybe fixed) : 0
Inconsistency in error sectors : 0Track 10
Filename : /Users/wakeupscreaming/Ripped/XLD/10 - All Sold Out.flac
Pre-gap length : 00:02:00 Track gain : -9.47 dB
Peak : 0.978027
CRC32 hash (test run) : 5B87C91D
CRC32 hash : 5B87C91D
CRC32 hash (skip zero) : E5E85740
AccurateRip signature : 18540AB0
->Accurately ripped! (confidence 3)
Statistics
Read error : 0
Skipped (treated as error) : 0
Edge jitter error (maybe fixed) : 0
Atom jitter error (maybe fixed) : 0
Drift error (maybe fixed) : 0
Dropped bytes error (maybe fixed) : 0
Duplicated bytes error (maybe fixed) : 0
Inconsistency in error sectors : 0Track 11
Filename : /Users/wakeupscreaming/Ripped/XLD/11 - In the Waiting.flac
Pre-gap length : 00:02:00 Track gain : -7.74 dB
Peak : 0.972290
CRC32 hash (test run) : D5C28312
CRC32 hash : D5C28312
CRC32 hash (skip zero) : E2A08C5B
AccurateRip signature : A12B5307
->Accurately ripped! (confidence 3)
Statistics
Read error : 0
Skipped (treated as error) : 0
Edge jitter error (maybe fixed) : 0
Atom jitter error (maybe fixed) : 0
Drift error (maybe fixed) : 0
Dropped bytes error (maybe fixed) : 0
Duplicated bytes error (maybe fixed) : 0
Inconsistency in error sectors : 0No errors occurredEnd of status report

Для скачки контента: [Установить программу-клиент] и кликнуть по - СкачатьБезопасность: клиент проверен АВ Касперского

[asmlocator.ru].t503442.torrent 
Торрент: Зарегистрирован [ 2018-02-12 19:30 ] · A706ED433AA10BDF3E590F800ADFB40D64252FB1

Скачать .torrent

Скачать

38 KB

Статус: проверено
Скачан: 0 раз
Размер: 1,74 GB
terms.php
[Профиль] [ЛС]
Показать сообщения:    
Ответить на тему

Текущее время: 17-Окт 19:27

Часовой пояс: UTC ± 0



Вы не можете начинать темы
Вы не можете отвечать на сообщения
Вы не можете редактировать свои сообщения
Вы не можете удалять свои сообщения
Вы не можете голосовать в опросах
Вы не можете прикреплять файлы к сообщениям
Вы можете скачивать файлы