Потерянный рай / Paradise Lost: The Child Murders at Robin Hood Hills (Джо Берлингер и Брюс Синофски / Joe Berlinger and Bruce Sinofsky) [1996, документальный, криминал, детектив, WEB-DL 1080p] MVO (RATTLEBOX) :: Официальный сайт PrivalSystems и Asmlocator

Потерянный рай / Paradise Lost: The Child Murders at Robin Hood Hills (Джо Берлингер и Брюс Синофски / Joe Berlinger and Bruce Sinofsky) [1996, документальный, криминал, детектив, WEB-DL 1080p] MVO (RATTLEBOX)

Ответить на тему
Статистика раздачи
Размер:  11,11 GB   |    Зарегистрирован:  6 месяцев 2 дня   |    Скачан:  0 раз

Полного источника не было: Никогда

 
   
 
 
Автор Сообщение

star21 ®

Пол: Женский

Стаж: 2 года 9 месяцев

Сообщений: 532050

Откуда: Екатеринбург

Создавать темы 12-Фев-2018 19:30

[Цитировать]

Потерянный райParadise Lost: The Child Murders at Robin Hood Hills Год выпуска: 1996
Страна: США
Студия: HBO Films
Жанр: документальный, криминал, детективПродолжительность: 02:29:08
Перевод: Любительский (многоголосый закадровый) RATTLEBOX
Субтитры: русские (на надписи), английские (SDH)Режиссёры: Джо Берлингер и Брюс Синофски / Joe Berlinger and Bruce SinofskyОписание: На основании спорных улик троих мальчишек-нонкформистов обвиняют в тройном убийстве детей в Западном Мемфисе.
Этот документальный фильм — судебная драма в реальной жизни.КиноПоиск | [imdb]http://www.imdb.com/title/tt0117293[/imdb] | SampleКачество: WEB-DL 1080p (SiGMA)
Формат: MKV
Видео: x264, 1440x1080 (4:3), 29.970 fps, ~10.0 Mbps avg, 0.215 bit/pixel
Аудио #1: Russian 48.0 KHz, AС3, 2/0 (Front: L R) ch, ~192.00 kbps avg |RATTLEBOX|
Аудио #2: English 48.0 KHz, EAС3, 2/0 (Front: L R) ch, ~224.00 kbps avg |Original|
Формат субтитров: softsub (SRT)

Релиз

Сборка, синхронизация звука и субтитров - whip93.
перевод: Екатерина Ролинская
роли озвучивали: Владимир Голицын, Александр Хошабаев, Алексей Шевченко, Михаил Белякович, Артем Маликов, Вадим Медведев, Ирина Яковлева, Полина Ртищева, Артем Дударев, Виктор Кузин, Сергей Кузнецов
звук: Евгений Арзамасцев

MediaInfo

General
Unique ID : 59304858113827614059718007280963601639 (0x2C9DB340E40E51BA7A7F8A00EAC6C4E7)
Complete name : F:\Paradise.Lost.The.Child.Murders.at.Robin.Hood.Hills.1996.1080p.WEB-DL.DD2.0.H.264.-whip93.mkv
Format : Matroska
Format version : Version 4 / Version 2
File size : 11.1 GiB
Duration : 2h 29mn
Overall bit rate mode : Variable
Overall bit rate : 10.7 Mbps
Movie name : Потерянный Рай | Paradise Lost: The Child Murders at Robin Hood Hills (1996) - Release by whip93
Encoded date : UTC 2018-02-09 09:47:17
Writing application : mkvmerge v20.0.0 ('I Am The Sun') 64-bit
Writing library : libebml v1.3.5 + libmatroska v1.4.8
DURATION : 02:29:08.768000000
NUMBER_OF_FRAMES : 279649
NUMBER_OF_BYTES : 214770432
_STATISTICS_WRITING_APP : mkvmerge v20.0.0 ('I Am The Sun') 64-bit
_STATISTICS_WRITING_DATE_UT : 2018-02-09 09:47:17
_STATISTICS_TAGS : BPS DURATION NUMBER_OF_FRAMES NUMBER_OF_BYTESVideo
ID : 1
Format : AVC
Format/Info : Advanced Video Codec
Format profile : High@L4
Format settings, CABAC : Yes
Format settings, ReFrames : 4 frames
Codec ID : V_MPEG4/ISO/AVC
Duration : 2h 29mn
Bit rate mode : Variable
Bit rate : 10.0 Mbps
Maximum bit rate : 15.0 Mbps
Width : 1 440 pixels
Height : 1 080 pixels
Display aspect ratio : 4:3
Frame rate mode : Constant
Frame rate : 29.970 fps
Color space : YUV
Chroma subsampling : 4:2:0
Bit depth : 8 bits
Scan type : Progressive
Bits/(Pixel*Frame) : 0.215
Stream size : 10.5 GiB (94%)
Title : SiGMA's WEB-DL
Language : English
Default : Yes
Forced : No
Color range : Limited
Color primaries : BT.709
Transfer characteristics : BT.709
Matrix coefficients : BT.709Audio #1
ID : 2
Format : AC-3
Format/Info : Audio Coding 3
Mode extension : CM (complete main)
Format settings, Endianness : Big
Codec ID : A_AC3
Duration : 2h 29mn
Bit rate mode : Constant
Bit rate : 192 Kbps
Channel(s) : 2 channels
Channel positions : Front: L R
Sampling rate : 48.0 KHz
Compression mode : Lossy
Stream size : 205 MiB (2%)
Title : MVO (RATTLEBOX)
Language : Russian
Default : Yes
Forced : NoAudio #2
ID : 3
Format : E-AC-3
Format/Info : Audio Coding 3
Format settings, Endianness : Big
Codec ID : A_EAC3
Duration : 2h 29mn
Bit rate mode : Constant
Bit rate : 224 Kbps
Channel(s) : 2 channels
Channel positions : Front: L R
Sampling rate : 48.0 KHz
Compression mode : Lossy
Stream size : 239 MiB (2%)
Title : Original
Language : English
Default : No
Forced : NoText #1
ID : 4
Format : UTF-8
Codec ID : S_TEXT/UTF8
Codec ID/Info : UTF-8 Plain Text
Title : Forced
Language : Russian
Default : Yes
Forced : NoText #2
ID : 5
Format : UTF-8
Codec ID : S_TEXT/UTF8
Codec ID/Info : UTF-8 Plain Text
Title : Original (SDH)
Language : English
Default : No
Forced : No

Скриншоты

Для скачки контента: [Установить программу-клиент] и кликнуть по - СкачатьБезопасность: клиент проверен АВ Касперского

[asmlocator.ru].t503428.torrent 
Торрент: Зарегистрирован [ 2018-02-12 19:30 ] · F7B35A21FFC01E1779B6C8A7BC3AA2F4F7898741

Скачать .torrent

Скачать

56 KB

Статус: проверено
Скачан: 0 раз
Размер: 11,11 GB
terms.php
[Профиль] [ЛС]
Показать сообщения:    
Ответить на тему

Текущее время: 15-Авг 11:12

Часовой пояс: UTC ± 0



Вы не можете начинать темы
Вы не можете отвечать на сообщения
Вы не можете редактировать свои сообщения
Вы не можете удалять свои сообщения
Вы не можете голосовать в опросах
Вы не можете прикреплять файлы к сообщениям
Вы можете скачивать файлы