Почему у носорога шкура в складках? (Владимир Сутеев) [1938, СССР, мультфильм, VHSRip-AVC]

Ответить на тему
Статистика раздачи
Размер:  211 MB   |    Зарегистрирован:  12 дней   |    Скачан:  0 раз

Полного источника не было: 6 дней

 
   
 
 
Автор Сообщение

star21 ®

Пол: Не указан

Стаж: 2 года 3 месяца

Сообщений: 354135

Создавать темы 12-Фев-2018 19:30

[Цитировать]

Почему у носорога шкура в складках?Страна: СССР
Студия: Союзмультфильм
Жанр: мультфильм
Год выпуска: 1938
Продолжительность: 00:10:59Режиссер: Владимир СутеевОписание: По мотивам сказки Редьярда Киплинга.
Неунывающий моряк после кораблекрушения «Фортуны» оказался на необитаемом острове, где быстро обзавёлся друзьями. Однажды приятели готовили фруктовый пирог, и на запах пришёл голодный злой Носорог. Он разрушил лагерь моряка и съел пирог. Друзья решили отомстить...За оцифровку с видеокассеты спасибо alenavova.Релиз: | Семпл: http://sendfile.su/1398477Тип релиза: VHSRip-AVC
Контейнер: MKV
Видео: 694x558 (1.36:1) @ 758x558, 25.000 fps, AVC, ~2435 Kbps, 0.252 bits/pixel
Аудио: Русский, 48.0 KHz, AC3, 1 ch, 192 Kbps

MediaInfo

GeneralUnique ID                                : 166352102685183602374912511619232852225 (0x7D263FE4F4565504B070308C15226901)Complete name                            : Почему у носорога шкура в складках.1938.VHSRip.AVC-rutracker.mkvFormat                                   : MatroskaFormat version                           : Version 4 / Version 2File size                                : 211 MiBDuration                                 : 10 min 59 sOverall bit rate                         : 2 681 kb/sEncoded date                             : UTC 2018-02-12 15:32:59Writing application                      : mkvmerge v20.0.0 ('I Am The Sun') 64-bitWriting library                          : libebml v1.3.5 + libmatroska v1.4.8VideoID                                       : 1Format                                   : AVCFormat/Info                              : Advanced Video CodecFormat profile                           : High@L4.1Format settings                          : CABAC / 16 Ref FramesFormat settings, CABAC                   : YesFormat settings, RefFrames               : 16 framesCodec ID                                 : V_MPEG4/ISO/AVCDuration                                 : 10 min 59 sBit rate                                 : 2 487 kb/sWidth                                    : 694 pixelsHeight                                   : 558 pixelsDisplay aspect ratio                     : 4:3Frame rate mode                          : ConstantFrame rate                               : 25.000 FPSColor space                              : YUVChroma subsampling                       : 4:2:0Bit depth                                : 8 bitsScan type                                : ProgressiveBits/(Pixel*Frame)                       : 0.257Stream size                              : 196 MiB (93%)Writing library                          : x264 core 152 r2851kMod ba24899Encoding settings                        : cabac=1 / ref=16 / deblock=1:-3:-2 / analyse=0x3:0x133 / me=umh / subme=11 / psy=1 / fade_compensate=0.00 / psy_rd=1.00:0.00 / mixed_ref=1 / me_range=48 / chroma_me=1 / trellis=2 / 8x8dct=1 / cqm=0 / deadzone=21,11 / fast_pskip=0 / chroma_qp_offset=-2 / threads=12 / lookahead_threads=3 / sliced_threads=0 / nr=0 / decimate=1 / interlaced=0 / bluray_compat=0 / constrained_intra=0 / bframes=16 / b_pyramid=2 / b_adapt=2 / b_bias=0 / direct=3 / weightb=1 / open_gop=0 / weightp=0 / keyint=250 / keyint_min=25 / scenecut=40 / intra_refresh=0 / rc_lookahead=70 / rc=crf / mbtree=0 / crf=20.0000 / qcomp=0.60 / qpmin=0 / qpmax=69 / qpstep=4 / vbv_maxrate=50000 / vbv_bufsize=62500 / crf_max=0.0 / nal_hrd=none / filler=0 / ip_ratio=1.40 / pb_ratio=1.30 / aq=3:0.75Default                                  : YesForced                                   : NoColor range                              : LimitedColor primaries                          : BT.601 PALTransfer characteristics                 : BT.470 System B, BT.470 System GMatrix coefficients                      : BT.470 System B, BT.470 System GAudioID                                       : 2Format                                   : AC-3Format/Info                              : Audio Coding 3Format settings, Endianness              : BigCodec ID                                 : A_AC3Duration                                 : 10 min 59 sBit rate mode                            : ConstantBit rate                                 : 192 kb/sChannel(s)                               : 1 channelChannel positions                        : Front: CSampling rate                            : 48.0 kHzFrame rate                               : 31.250 FPS (1536 SPF)Bit depth                                : 16 bitsCompression mode                         : LossyStream size                              : 15.1 MiB (7%)Language                                 : RussianService kind                             : Complete MainDefault                                  : YesForced                                   : No

Скриншоты

Для скачки контента: [Установить программу-клиент] и кликнуть по - Скачать

[asmlocator.ru].t503411.torrent 
Торрент: Зарегистрирован [ 2018-02-12 19:30 ] · C73873188E4D2532391A94F5E57008A97FF49B96

Скачать .torrent

Скачать

17 KB

Статус: проверено
Скачан: 0 раз
Размер: 211 MB
terms.php
[Профиль] [ЛС]
Показать сообщения:    
Ответить на тему

Текущее время: 24-Фев 21:33

Часовой пояс: UTC ± 0



Вы не можете начинать темы
Вы не можете отвечать на сообщения
Вы не можете редактировать свои сообщения
Вы не можете удалять свои сообщения
Вы не можете голосовать в опросах
Вы не можете прикреплять файлы к сообщениям
Вы можете скачивать файлы