Звездные войны: Войны клонов - Наследие / Star Wars: The Clone Wars - Legacy / Серии: 8 из 8 (Дэйв Филони / Dave Filoni) [2014-2015, США, мультфильм, фантастика, WEB-DLRip] MVO + Rus Sub

Ответить на тему
Статистика раздачи
Размер:  3,91 GB   |    Зарегистрирован:  8 месяцев 6 дней   |    Скачан:  0 раз

Полного источника не было: 3 месяца 11 дней

 
   
 
 
Автор Сообщение

star21 ®

Пол: Женский

Стаж: 2 года 11 месяцев

Сообщений: 552946

Откуда: Екатеринбург

Создавать темы 11-Фев-2018 11:50

[Цитировать]

Звездные войны: Войны клонов - Наследие / Star Wars: The Clone Wars - Legacy Страна: США
Жанр: мультфильм, фантастика
Продолжительность серии: ~00:22:00
Год выпуска: 2014-2015
Перевод: Любительский (многоголосый закадровый)
Русские субтитры: естьРежиссёр: Дэйв Филони, Стюард Ли, Боско Нг, Браин О'Коннелл, Дэнни Келлер / Dave Filoni, Steward Lee, Bosco Ng, Brian O'Connell, Danny KellerРоли озвучивали: Джеймс Арнольд Тейлор, Мэтт Лантер, Джеймс Хонг, Кори Бёртон, Мэтью Вуд, Том Кейн, Бен Дискин, Грегг Бергер, Терренс КарсонСписок серий:
Арка «Кризис кристалла на Утапау»
Эпизод №1 «Смерть на Утапау»
Эпизод №2 «В поисках кристалла»
Эпизод №3 «Кризис кристалла»
Эпизод №4 «Большой взрыв»Арка «Бракованная партия»
Эпизод №5 «Бракованная партия»
Эпизод №6 «Эхо вдалеке»
Эпизод №7 «Крылья Кирадаков»
Эпизод №8 «Незаконченное дело»Сборник клипов «сырой анимации» для незавершённых арок.Описание:
Перед закрытием шестого сезона оставалось ещё 13 сюжетных арок и были написаны первые черновые сценарии для 7 и 8 сезонов. Изначально в пятом сезоне было 25 эпизодов, в то время как в шестом и седьмом сезонах должно было быть по 24 эпизода в каждом. Для некоторых серий уже были созданы клипы «сырой анимации».В 2014 году на официальном сайте Звёздных войн были выложены четыре эпизода сюжетной арки «Кризис кристалла на Утапау» в формате «сырой анимации».В 2015 года на праздновании в Анахайме (Celebration Anaheim) в формате «сырой анимации» была показана вторая завершённая четырехсерийная сюжетная арка «Бракованная партия».Так же в рамках Celebration Anaheim были показаны фрагменты «сырой анимации» к нескольким другим незавершённым аркам: «Охотники за головами», «Странствия Асоки», «Тёмный последователь. Часть 1» и «Кашиик».Качество: WEB-DLRip
Формат: MKV
Видео: AVC, 1280x544 (2,35:1), 23.976 fps, ~2500kbps
Аудио 1: [Русский] AC3, 48 kHz, 2 ch, 192 Kbps - Iron Sound (эпизоды 1-4)
Аудио 2: [Русский] AC3, 48 kHz, 2 ch, 192 Kbps - RusDubUrbanStudio (эпизоды 6-8)
Аудио 3: [Русский] AC3, 48 kHz, 2 ch, 192 Kbps - Русский дубляж (сборник клипов, частично)
Аудио 4: [Английский] AC3, 48 kHz, 2 ch, 192 Kbps
Субтитры 1: Русские полные
Субтитры 2: Английские полные (только для сборника клипов)

Подробные технические данные

Уникальный идентификатор: 114591733933692296270600528454983058325 (0x563590AF637129461547A8F6A53F8395)Полное имя: E:\Видео\Star Wars\Star Wars - The Clone Wars Legacy\Episode #1 - A Death on Utapau.mkvФормат: MatroskaВерсия формата: Version 4 / Version 2Размер файла: 460 МбайтПродолжительность: 22 м. 19 с.Режим общего битрейта: ПеременныйОбщий поток: 2880 Кбит/секПрограмма кодирования: XviD4PSP 7.0.441 DAILYБиблиотека кодирования: Lavf57.71.100ВидеоИдентификатор: 1Формат: AVCФормат/Информация: Advanced Video CodecПрофиль формата: High@L4.1Параметр CABAC формата: ДаПараметр RefFrames формата: 5 кадровИдентификатор кодека: V_MPEG4/ISO/AVCПродолжительность: 22 м. 19 с.Вид битрейта: ПеременныйБитрейт: 2500 Кбит/секМаксимальный битрейт: 3000 Кбит/секШирина: 1280 пикселейВысота: 544 пикселяСоотношение сторон: 2,35:1Режим частоты кадров: ПостоянныйЧастота кадров: 23,976 (24000/1001) кадра/секЦветовое пространство: YUVСубдискретизация насыщенности: 4:2:0Битовая глубина: 8 битТип развёртки: ПрогрессивнаяБит/(Пиксели*Кадры): 0.150Размер потока: 390 Мбайт (85%)Библиотека кодирования: x264 core 155 r2901M 7d0ff22Настройки программы: cabac=1 / ref=6 / deblock=0:1:1 / analyse=0x3:0x133 / me=tesa / subme=9 / psy=0 / mixed_ref=1 / me_range=24 / chroma_me=1 / trellis=1 / 8x8dct=1 / cqm=0 / deadzone=6,6 / fast_pskip=1 / chroma_qp_offset=0 / threads=9 / lookahead_threads=1 / sliced_threads=0 / nr=0 / decimate=0 / interlaced=0 / bluray_compat=1 / constrained_intra=0 / bframes=2 / b_pyramid=1 / b_adapt=2 / b_bias=0 / direct=3 / weightb=0 / open_gop=0 / weightp=0 / keyint=240 / keyint_min=1 / scenecut=40 / intra_refresh=0 / rc_lookahead=0 / rc=2pass / mbtree=0 / bitrate=2500 / ratetol=1.0 / qcomp=0.80 / qpmin=0 / qpmax=69 / qpstep=4 / cplxblur=20.0 / qblur=0.5 / vbv_maxrate=3000 / vbv_bufsize=2142 / nal_hrd=vbr / filler=0 / ip_ratio=1.10 / pb_ratio=1.10 / aq=2:0.60Default: ДаForced: НетЦветовой диапазон: FullАудио #1Идентификатор: 2Формат: AC-3Формат/Информация: Audio Coding 3Параметр Endianness формата: BigИдентификатор кодека: A_AC3Продолжительность: 22 м. 19 с.Вид битрейта: ПостоянныйБитрейт: 192 Кбит/секКаналы: 2 каналаРасположение каналов: Front: L RЧастота: 48,0 КГцЧастота кадров: 31,250 кадров/сек (1536 SPF)Битовая глубина: 16 битМетод сжатия: С потерямиРазмер потока: 30,7 Мбайт (7%)Заголовок: Iron SoundЯзык: RussianServiceKind/String: Complete MainDefault: ДаForced: НетАудио #2Идентификатор: 3Формат: AC-3Формат/Информация: Audio Coding 3Параметр Endianness формата: BigИдентификатор кодека: A_AC3Продолжительность: 22 м. 19 с.Вид битрейта: ПостоянныйБитрейт: 192 Кбит/секКаналы: 2 каналаРасположение каналов: Front: L RЧастота: 48,0 КГцЧастота кадров: 31,250 кадров/сек (1536 SPF)Битовая глубина: 16 битМетод сжатия: С потерямиРазмер потока: 30,7 Мбайт (7%)Язык: EnglishServiceKind/String: Complete MainDefault: НетForced: НетТекст #1Идентификатор: 4Формат: UTF-8Идентификатор кодека: S_TEXT/UTF8Идентификатор кодека/Информация: UTF-8 Plain TextЗаголовок: fullЯзык: RussianDefault: ДаForced: Нет

Скриншоты


Предыдущие и альтернативные раздачи

Для скачки контента: [Установить программу-клиент] и кликнуть по - СкачатьБезопасность: клиент проверен АВ Касперского

[asmlocator.ru].t502820.torrent 
Торрент: Зарегистрирован [ 2018-02-11 11:50 ] · 4A6744438D1E019B318B6F025352C00410B171CD

Скачать .torrent

Скачать

21 KB

Статус: проверено
Скачан: 0 раз
Размер: 3,91 GB
terms.php
[Профиль] [ЛС]
Показать сообщения:    
Ответить на тему

Текущее время: 17-Окт 19:27

Часовой пояс: UTC ± 0



Вы не можете начинать темы
Вы не можете отвечать на сообщения
Вы не можете редактировать свои сообщения
Вы не можете удалять свои сообщения
Вы не можете голосовать в опросах
Вы не можете прикреплять файлы к сообщениям
Вы можете скачивать файлы