Третий глаз / Il terzo occhio / Third Eye (Мино Гверрини (Джеймс Уоррен) / Mino Guerrini (James Warren)) [1966, Италия, триллер, ужасы, DVD5 (Custom)] Sub Rus + Original Ita

Ответить на тему
Статистика раздачи
Размер:  4.37 GB   |    Зарегистрирован:  2 года   |    Скачан:  0 раз

Полного источника не было: Никогда

 
   
 
 
Автор Сообщение

star21 ®

Пол: Женский

Стаж: 4 года 3 месяца

Сообщений: 551946

Откуда: Екатеринбург

Создавать темы 08-Фев-2018 09:25

[Цитировать]

Третий глаз / Il terzo occhio / Third Eye Страна: Италия
Жанр: триллер, ужасы
Год выпуска: 1966
Продолжительность: 01:23:34Перевод: Субтитры Доп. инфо о переводе Greenpig
Субтитры: русские
Оригинальная аудиодорожка: итальянскийРежиссер: Мино Гверрини (Джеймс Уоррен) / Mino Guerrini (James Warren)В ролях: Франко Неро (Фрэнк Неро) / Franco Nero (Frank Nero), Джиоя Паскаль / Gioia Pascal, Эрика Бланк (Диана Салливан) / Erika Blanc (Diana Sullivan), Ольга Сольбелли (Ольга Санбьюти) / Olga Solbelli (Olga Sunbeauty), Марина Морган / Marina Morgan, Ричард Хиллок / Richard Hillock, Лучано Фоти / Luciano FotiОписание: Молодой граф Мино (Ф. Неро) живет с властной матерью и служанкой Мартой в некогда богатом поместье. У Мино есть невеста Лаура, которую графиня ненавидит и мечтает лишь о том, чтобы свадьба ее сына не состоялась. Марта тоже имеет виды на Мино, поэтому устраивает Лауре автокатастрофу, в которой та погибает. В тот же день, поссорившись с графиней, Марта убивает и ее, столкнув с лестницы. Мино, потерявший в один момент двух женщин, которых любил, сходит с ума. Используя свои навыки в таксидермии, он превращает тело невесты в чучело и хранит его у себя в спальне...Одиозный шедевр Джо Д'Амато "За пределами тьмы" - римейк "Третьего глаза". Несмотря на сходства сюжета, отличия у фильмов разительные. Вместо кровавого потрошительского угара здесь мы имеем стильный черно-белый джалло с четко прописанной драматической линией и отличной актерской игрой. Кошмары, вытащенные Д'Амато на передний план, здесь остаются за кадром - о растворении трупов в кислоте мы узнаем только из разговоров, о превращении девушки в мумию - только после того, как абсолютно неожиданно видим ее забальзамированный труп. Хотя рискну предположить, что в год своего выхода этот триллер шокировал аудиторию не менее хичкоковского "Психоза". Смотрится фильм на одном дыхании, события развиваются стремительно, что для фильмам того времени было не свойственно. РЕЛИЗ ГРУППЫ Доп. информация: Русские субтитры взяты с этой раздачи http://rutracker.org/forum/viewtopic.php?t=3208059 автору огромное спасибо.При пересборе двд были использованы программы: Txt2Sup, PgcDemux_1205_exe, muxman_1_1_1, pgcedit, VobBlanker_2130_exe.

Скрин завершения проекта

Сэмпл: http://narod.ru/disk/38528796001/%D1%81%D0%B5%D0%BC%D0%BF%D0%BB.vob.htmlТип релиза: DVD5 (Custom)
Контейнер: DVD-VideoВидео: PAL 16:9 (720x576) VBR Auto Letterboxed
Аудио: Italiano (Dolby AC3, 256 Kbps, 2 ch)
Формат субтитров: softsub (SRT)

DVDInfo

Title:
Size: 4.37 Gb ( 4 583 244 KBytes ) - DVD-5
Enabled regions: 1, 2, 3, 4, 5, 6, 7, 8VTS_01 :
Play Length: 01:23:19+00:00:15
Video: PAL 16:9 (720x576) VBR, Auto Letterboxed
Audio:
Italiano (Dolby AC3, 2 ch)
Subtitles:
Russian
English
EnglishMenu Video:
PAL 4:3 (704x576) VBR
Menu English Language Unit :
Root Menu

MediaInfo

General
Complete name : E:\DVD\Il terzo occhio\VIDEO_TS\VTS_01_1.VOB
Format : MPEG-PS
File size : 1 024 MiB
Duration : 18mn 40s
Overall bit rate : 7 664 KbpsVideo
ID : 224 (0xE0)
Format : MPEG Video
Format version : Version 2
Format profile : Main@Main
Format settings, BVOP : Yes
Format settings, Matrix : Default
Duration : 18mn 40s
Bit rate mode : Variable
Bit rate : 7 256 Kbps
Nominal bit rate : 8 000 Kbps
Width : 720 pixels
Height : 576 pixels
Display aspect ratio : 16:9
Frame rate : 25.000 fps
Standard : PAL
Color space : YUV
Chroma subsampling : 4:2:0
Bit depth : 8 bits
Scan type : Progressive
Bits/(Pixel*Frame) : 0.700
Stream size : 969 MiB (95%)Audio
ID : 128 (0x80)
Format : AC-3
Format/Info : Audio Coding 3
Mode extension : CM (complete main)
Duration : 18mn 40s
Bit rate mode : Constant
Bit rate : 256 Kbps
Channel(s) : 2 channels
Channel positions : Front: L R
Sampling rate : 48.0 KHz
Bit depth : 16 bits
Stream size : 34.2 MiB (3%)Text #1
ID : 32 (0x20)
Format : RLE
Format/Info : Run-length encoding
Duration : 18mn 37s
Video delay : 2s 360msText #2
ID : 33 (0x21)
Format : RLE
Format/Info : Run-length encoding
Duration : 18mn 39s
Video delay : 1s 80msText #3
ID : 34 (0x22)
Format : RLE
Format/Info : Run-length encoding
Duration : 18mn 39s
Video delay : 1s 80msMenu

Скриншоты меню

Чтобы скачать этот контент, Вам необходимо:
1. Скачать и установить торрент-клиент [клик для Windows], (для мобильного найдите на Play Маркет).
2. Кликнуть по [Скачать]


Внимание.
Если проверка ВЫ НЕ РОБОТ - не работает, значит Вы используете устаревший браузер.
Установите актуальный браузер и повторно кликните по [Скачать]
Безопасность: торрент-клиент разрешён АВ Касперского.

[asmlocator.ru].t501500.torrent 
Торрент: Зарегистрирован [ 2018-02-08 09:25 ] · 051944F5E14CDCE96B2EF61F680D9480397B06B2

Скачать .torrent

Скачать

176 KB

Статус: проверено
Скачан: 0 раз
Размер: 4.37 GB
terms.php
[Профиль] [ЛС]
Показать сообщения:    
Ответить на тему

Текущее время: 22-Фев 18:34

Часовой пояс: UTC ± 0



Вы не можете начинать темы
Вы не можете отвечать на сообщения
Вы не можете редактировать свои сообщения
Вы не можете удалять свои сообщения
Вы не можете голосовать в опросах
Вы не можете прикреплять файлы к сообщениям
Вы можете скачивать файлы
Верим фактам, а не вранью Путина! Факт, что Правительство ведёт Россию к истреблению.
Так как численность населения падает, даже не смотря на приток эмигрантов!
Русская нация вымирает и вырождается, смешиваясь с эмигрантами!
Факт, что военных и граждан предприятий заставляют голосовать за партию Единая Россия и Путина
ПОД СТРАХОМ УВОЛЬНЕНИЯ!
Нам не нужно Правительство, блокирующее личную жизнь, интернет, нарушающее сохранность данных.
Все эти действия финансируются за счёт народа!