Необыкновенное путешествие обелиска / L\'Odyssée De L\'Obélisque (Olivier Lemaître/Оливье Леметр) [2014, документальный, DVB]

Ответить на тему
Статистика раздачи
Размер:  1,09 GB   |    Зарегистрирован:  1 год 9 месяцев   |    Скачан:  0 раз

Полного источника не было: Никогда

 
   
 
 
Автор Сообщение

star21 ®

Пол: Женский

Стаж: 4 года

Сообщений: 551946

Откуда: Екатеринбург

Создавать темы 03-Фев-2018 15:20

[Цитировать]

Необыкновенное путешествие обелиска / L'Odyssée De L'Obélisque Дата/Год выпуска: 2014
Страна: Франция
Жанр: документальный
Продолжительность: 00:51:35
Перевод: Одноголосый закадровый
Доп. инфо о переводе: св дубль по заказу гтрк культура
Режиссер: Olivier Lemaître/Оливье ЛеметрТелеканал: Культура
Описание: 25 октября 1836 года. Главное событие года. Впервые в центре Парижа был установлен египетский обелиск, который стал самым древним памятником города. Увенчанный золотом гранитный исполин, высеченный более три тысячи лет назад у нильских водопадов, был предназначен для посвященного богу Амону храма в Луксоре. Но как этот монолит весом более 220 тонн смог совершить такое долгое путешествие по морям и рекам? Опираясь на воспоминания членов команды, мы проделаем тот же путь от Нила до Сены. Это путешествие между двумя цивилизациями было заново открыто и исследовано благодаря сохранившимся макетам.Сэмпл: http://sendfile.su/1396241качество: DVB
формат: TS
Видео: Mpeg Video AVC, 720x576, 4:3, 2692 Кбит/сек, 25 кадров/сек
Аудио: Mpeg Audio MP2, 192 kbps, 48Khz, 2CH

MediaInfo

ОбщееИдентификатор                            : 1 (0x1)Полное имя                               : H:\Путешествие обелиска 2014(К).tsФормат                                   : MPEG-TSРазмер файла                             : 1,09 ГбайтПродолжительность                        : 51 м. 35 с.Режим общего битрейта                    : ПеременныйОбщий поток                              : 3036 Кбит/секВидеоИдентификатор                            : 1061 (0x425)Идентификатор меню                       : 1060 (0x424)Формат                                   : AVCФормат/Информация                        : Advanced Video CodecПрофиль формата                          : Main@L3Параметр CABAC формата                   : ДаПараметр ReFrames формата                : 3 кадраПараметр GOP формата                     : M=4, N=28Идентификатор кодека                     : 27Продолжительность                        : 51 м. 35 с.Битрейт                                  : 2692 Кбит/секШирина                                   : 720 пикселейВысота                                   : 576 пикселейСоотношение сторон                       : 4:3Частота кадров                           : 25,000 кадров/секСтандарт вещания                         : ComponentЦветовое пространство                    : YUVСубдискретизация насыщенности            : 4:2:0Битовая глубина                          : 8 битТип развёртки                            : ЧересстрочнаяМетод сохранения типа развёртки          : Раздельные поляПорядок развёртки                        : Верхнее поле первоеБит/(Пиксели*Кадры)                      : 0.260Размер потока                            : 994 Мбайт (89%)Цветовой диапазон                        : LimitedОсновные цвета                           : BT.601 PALХарактеристики трансфера                 : BT.470 System B, BT.470 System GКоэффициенты матрицы                     : BT.601АудиоИдентификатор                            : 1062 (0x426)Идентификатор меню                       : 1060 (0x424)Формат                                   : MPEG AudioВерсия формата                           : Version 1Профиль формата                          : Layer 2Идентификатор кодека                     : 3Продолжительность                        : 51 м. 35 с.Вид битрейта                             : ПостоянныйБитрейт                                  : 192 Кбит/секКаналы                                   : 2 каналаЧастота                                  : 48,0 КГцМетод сжатия                             : С потерямиРазмер потока                            : 70,9 Мбайт (6%)Язык                                     : English

Скриншоты

Чтобы скачать этот контент, Вам необходимо:
1. Скачать и установить торрент-клиент [клик для Windows], (для мобильного найдите на Play Маркет).
2. Кликнуть по [Скачать]


Внимание.
Если проверка ВЫ НЕ РОБОТ - не работает, значит Вы используете устаревший браузер.
Установите актуальный браузер и повторно кликните по [Скачать]
Безопасность: торрент-клиент разрешён АВ Касперского.

[asmlocator.ru].t500113.torrent 
Торрент: Зарегистрирован [ 2018-02-03 15:20 ] · 38570535328FA5F34B938E243979C59920E0004A

Скачать .torrent

Скачать

11 KB

Статус: проверено
Скачан: 0 раз
Размер: 1,09 GB
terms.php
[Профиль] [ЛС]
Показать сообщения:    
Ответить на тему

Текущее время: 22-Ноя 14:07

Часовой пояс: UTC ± 0



Вы не можете начинать темы
Вы не можете отвечать на сообщения
Вы не можете редактировать свои сообщения
Вы не можете удалять свои сообщения
Вы не можете голосовать в опросах
Вы не можете прикреплять файлы к сообщениям
Вы можете скачивать файлы
Верим фактам, а не вранью Путина! Факт, что Правительство ведёт Россию к истреблению.
Так как численность населения падает, даже не смотря на приток эмигрантов!
Русская нация вымирает и вырождается, смешиваясь с эмигрантами!
Факт, что военных и граждан предприятий заставляют голосовать за партию Единая Россия и Путина
ПОД СТРАХОМ УВОЛЬНЕНИЯ!
Нам не нужно Правительство, блокирующее личную жизнь, интернет, нарушающее сохранность данных.
Все эти действия финансируются за счёт народа!