[SACD-R][OF] Paul Mauriat - Holidays & Penelope - 2017 (Easy Listenin)

Reply to topic
DL-List and Torrent activity
Size:  3.2 GB   |    Registered:  1 year 6 months   |    Completed:  5 times

Seeder not seen: 53 minutes

 
   
 
 
Author Message

star21 ®

Gender: Female

Longevity: 3 years 9 months

Posts: 551989

Location: Екатеринбург

Post 30-Jan-2018 20:25

[Quote]

Paul Mauriat / Holidays & Penelope Формат записи/Источник записи: [SACD-R][OF]
Наличие водяных знаков: Нет
Год издания/переиздания диска: 1973/2017
Жанр: Easy Listenin
Издатель (лейбл): Mercury / Vocalion
Продолжительность: 01:10.44:64
Наличие сканов в содержимом раздачи: Да (сканы)Треклист:
Penelope
01. Penelope (L'eternel Retour) [0:03:36.61]
02. Melancholy Man [0:03:11.49]
03. La Bikina [0:02:18.34]
04. In the Summertime [0:02:39.52]
05. Pardonne-Moi ce Caprice D'enfant [0:02:54.37]
06. Etude in the Form of Rhytm and Blues [0:05:06.13]
07. El Condor Pasa [0:03:09.42]
08. Pomme, Pomme, Pomme [0:02:32.02]
09. Reviens, Je T'aime [0:02:41.73]
10. Che Sara (Qui Saura) [0:02:44.01]
11. Et Mourir de Plaisir [0:03:10.41]
12. My Sweet Lord [0:03:12.17]
Holidays
13. Holidays [0:02:39.35]
14. La Chanson pour Anna [0:02:51.02]
15. Il y a du Soleil sur La France [0:02:22.16]
16. Apres Toi [0:03:11.15]
17. Mamy Blue [0:02:55.10]
18. Last Summer Day (Adieu L'ete, Adieu La Plage) [0:02:52.73]
19. Speak Softly Love [0:02:43.34]
20. Jesus Cristo [0:02:59.41]
21. I'd Like to Teach the World to Sing [0:02:36.22]
22. Here's to You [0:02:47.69]
23. A Summer Place [0:02:24.73]
24. Mother of Mine [0:03:02.02]Контейнер: ISO (*.iso)
Тип рипа: image
Разрядность: 64(2,8 MHz/1 Bit)
Формат: DST64
Количество каналов: 5.1, 2.0Доп. информация: Vocalion CDLK 4607 (2017)
Mastered Michael J. Dutton from original analog master tapes
ISO image created using sacd-ripper for PS3
CD-слой этого диска тут
Источник (релизер): KingCrim (PS³SACD)
https://www.amazon.co.jp/Penelope-Holidays-Paul-Mauriat/dp/B071X4Y8FJ

Лог DR

foobar2000 1.3.13 / Замер динамического диапазона (DR) 1.1.1Дата отчёта:  2018-01-30 20:46:48--------------------------------------------------------------------------------Анализ:   Paul Mauriat   / Penelope & Holidays--------------------------------------------------------------------------------DR         Пики         RMS           Продолжительность трека--------------------------------------------------------------------------------DR17      -4.93 дБ   -23.11 дБ      3:35 01-PenelopeDR8       -6.80 дБ   -24.50 дБ      3:09 02-Melancholy ManDR8       -7.87 дБ   -24.15 дБ      2:16 03-La BikinaDR8       -5.52 дБ   -22.61 дБ      2:36 04-In the SummertimeDR8       -6.43 дБ   -22.97 дБ      2:50 05-Pardonne Moi ce Caprice DenfantDR7       -5.31 дБ   -21.53 дБ      5:02 06-Etude in the Form of Rhythm and BluesDR8       -6.48 дБ   -23.71 дБ      3:08 07-El Condor PasaDR8       -6.58 дБ   -23.59 дБ      2:28 08-Pomme  Pomme  PommeDR8       -6.41 дБ   -22.33 дБ      2:38 09-Reviens Je TaimeDR8       -7.29 дБ   -24.00 дБ      2:41 10-Che SaraDR8       -6.54 дБ   -23.58 дБ      3:08 11-Et Mourir de PlaisirDR8       -7.67 дБ   -23.14 дБ      3:05 12-My Sweet LordDR8       -8.17 дБ   -25.27 дБ      2:36 13-HolidaysDR8       -8.92 дБ   -24.88 дБ      2:48 14-La Chanson pour AnnaDR8       -7.95 дБ   -24.76 дБ      2:20 15-Il y a du Soleil sur La FranceDR8       -8.66 дБ   -25.41 дБ      3:09 16-Apres ToiDR7       -7.88 дБ   -24.66 дБ      2:51 17-Mamy BlueDR8       -7.65 дБ   -23.77 дБ      2:50 18-Last Summer DayDR7       -8.17 дБ   -24.25 дБ      2:40 19-Speak Softly LoveDR8       -8.13 дБ   -24.37 дБ      2:58 20-Jesus CristoDR9       -5.73 дБ   -26.35 дБ      2:33 21- Id Like to Teach the World to SingDR7       -6.39 дБ   -23.44 дБ      2:44 22-Heres to YouDR8       -7.47 дБ   -23.00 дБ      2:21 23-A Summer PlaceDR8      -10.35 дБ   -26.54 дБ      3:03 24-Mother of Mine--------------------------------------------------------------------------------Количество треков: 24Реальные значения DR: DR8Частота:   2822400 Гц / Частота PCM: 352800 ГцКаналов:   6Разрядность:   24Битрейт:   16934 кбит/сКодек:   DST64================================================================================--------------------------------------------------------------------------------Анализ:   Paul Mauriat   / Penelope & Holidays--------------------------------------------------------------------------------DR         Пики         RMS           Продолжительность трека--------------------------------------------------------------------------------DR12      -5.70 дБ   -20.58 дБ      3:35 01-PenelopeDR13      -5.45 дБ   -20.57 дБ      3:09 02-Melancholy ManDR12      -6.34 дБ   -20.23 дБ      2:16 03-La BikinaDR14      -5.12 дБ   -20.82 дБ      2:36 04-In the SummertimeDR14      -5.19 дБ   -21.08 дБ      2:50 05-Pardonne Moi ce Caprice DenfantDR12      -6.47 дБ   -20.33 дБ      5:02 06-Etude in the Form of Rhythm and BluesDR12      -6.08 дБ   -21.08 дБ      3:08 07-El Condor PasaDR12      -5.83 дБ   -20.46 дБ      2:28 08-Pomme  Pomme  PommeDR13      -5.44 дБ   -20.13 дБ      2:38 09-Reviens Je TaimeDR12      -6.63 дБ   -21.02 дБ      2:41 10-Che SaraDR12      -6.41 дБ   -20.99 дБ      3:08 11-Et Mourir de PlaisirDR11      -6.87 дБ   -20.03 дБ      3:05 12-My Sweet LordDR12      -7.74 дБ   -21.63 дБ      2:36 13-HolidaysDR11      -7.84 дБ   -20.48 дБ      2:48 14-La Chanson pour AnnaDR11      -6.63 дБ   -20.22 дБ      2:20 15-Il y a du Soleil sur La FranceDR12      -6.98 дБ   -20.75 дБ      3:09 16-Apres ToiDR12      -6.49 дБ   -21.52 дБ      2:51 17-Mamy BlueDR11      -7.09 дБ   -20.71 дБ      2:50 18-Last Summer DayDR11      -7.63 дБ   -19.92 дБ      2:40 19-Speak Softly LoveDR11      -6.47 дБ   -20.12 дБ      2:58 20-Jesus CristoDR13      -5.88 дБ   -22.22 дБ      2:33 21- Id Like to Teach the World to SingDR12      -5.53 дБ   -21.08 дБ      2:44 22-Heres to YouDR11      -8.96 дБ   -21.92 дБ      2:21 23-A Summer PlaceDR11      -8.23 дБ   -22.49 дБ      3:03 24-Mother of Mine--------------------------------------------------------------------------------Количество треков: 24Реальные значения DR: DR12Частота:   2822400 Гц / Частота PCM: 352800 ГцКаналов:   2Разрядность:   24Битрейт:   5645 кбит/сКодек:   DST64================================================================================

To download the content you need:
1. Download and install torrent client [for Windows] or for mobile system
2. Click on [Download]
Attention.
If the test YOU are NOT a ROBOT - does not work, then You are using an outdated browser.
Install the current browser and click on [Download]
Security: torrent client is allowed by Kaspersky.

[asmlocator.ru].t499018.torrent 
Torrent: Registered [ 2018-01-30 20:25 ] · AC69B6F33CE76B6B93F7D69C600AE243F5E739DD

Download .torrent

Download

17 KB

Status: checked
Completed: 5 times
Size: 3.2 GB
terms.php
[Profile] [PM]

master127

Gender: Male

Longevity: 4 months 1 day

Posts: 2

Location: Москва

Post 04-May-2019 15:37 (after 1 year 3 months)

[Quote]

Количество каналов: 5.0. Записал Диск ImgBurn как всегда,но 5 каналов есть, а шестого сабвуфера нет.
И в стерео варианте 2.0 в 10 и 11 композициях наблюдается пропадание звука!
Вот такая недолга!
[Profile] [PM]
Display posts:    
Reply to topic

Current time is: 23-Aug 19:13

All times are UTC ± 0



You cannot post new topics in this forum
You cannot reply to topics in this forum
You cannot edit your posts in this forum
You cannot delete your posts in this forum
You cannot vote in polls in this forum
You cannot attach files in this forum
You can download files in this forum