[Анна Бусел] Как делать фотоконтент для Instagram (и других социальных сетей) [2017, инстаграм, продвижение, RUS] (Видеоурок)

Ответить на тему
Статистика раздачи
Размер:  1.79 GB   |    Зарегистрирован:  2 года 4 месяца   |    Скачан:  2 раза

Полного источника не было: 5 месяцев 16 дней

 
   
 
 
Автор Сообщение

star21 ®

Пол: Женский

Стаж: 4 года 6 месяцев

Сообщений: 551945

Откуда: Екатеринбург

Создавать темы 28-Янв-2018 01:15

[Цитировать]

Как делать фотоконтент для Instagram Авторы: Анна Бусел
Страна: Россия
Тематика: инстаграм, продвижение
Тип раздаваемого материала: Видеоурок
Год выпуска: 2017Язык: Русский
Перевод: не требуется
Ссылка на курс на сайте автора: отсутствует Материал собрал только положительные отзывы. Вся информация дается кратко, по существу и без лишней воды. Подача очень качественная и автора приятно слушать. Рекомендуем изучить, если вы ведете свой профиль в Instagram.Вы узнаете секреты и научитесь делать крутой фотоконтент для Instagram. Курс состоит из 6 подробных уроков.Продолжительность: ~03:45:30Формат: MP4, DOC
Видео: MPEG4 Video 856x480 30fps 898kbps
Аудио: AAC 44100Hz stereo 198kbps VBR

Учебный план


Урок 1
:
  • Как перестать тратить часы на то, чтобы фотография получилась «удачной». Главные принципы успешного кадра.
  • Роль СВЕТА
  • Композиция : как делать фото «приятные глазу»
  • Так ли важен ракурс?
  • Как «видеть» удачный кадр ?
    Урок 2:
  • Как сделать фотографию «дороже»?
  • Как делать модные раскладки? Что «решает» в таких фото? Научишься быстро и красиво «раскидывать» предметы в кадре.
  • Цвет в фотографии
  • Детали в фотографии
    Урок 3:
  • Подробнейшие инструкции по обработке фотографий в самых популярных приложениях: VSCO, Snapseed, Facetune + БОНУС! Обработка видео в imovie. Покажу все шаги и секреты
  • Видеоинструкция: «Как фотографировать людей в городе»
  • Видеоинструкция: «Как за 4 минуты сделать сразу 5 фотографий для фотоконтента» — покажу как это делаю я
    Урок 4:
  • Как найти модель для фотосессии: где, сколько платить, какие условия работы предлагать?
  • Всегда ли нужна профессиональная модель?
  • Как выбрать студию для фотосессии?
  • Как правильно подобрать команду?
  • Что важно при организации съемки?
  • Как фотографировать в студии, если вы не профессиональный фотограф?
    Урок 5:
  • Как работать с подрядчиками?
  • Секрет успешной фотосессии?
  • Как фотографировать товар/услугу?
  • Как снимать видео, если нет профессионального оборудования?
    Урок 6:
  • Как найти свою фишку?
  • Как выбрать цвет и стиль профиля?
  • Какие фотографии набирают большее количество лайков?
  • Сколько стоит фотоконтент?
  • Как тратить всего 2 часа в неделю на фотосъемку?

MediaInfo

GeneralComplete name                  : E:\release\Как делать фотоконтент для Instagram\01. 1 урок\1 урок.mp4Format                         : MPEG-4Format profile                 : Base MediaCodec ID                       : isom (isom/iso2/mp41)File size                      : 267 MiBDuration                       : 33 min 50 sOverall bit rate mode          : ConstantOverall bit rate               : 1 104 kb/sWriting application            : Lavf57.25.100VideoID                             : 1Format                         : MPEG-4 VisualFormat profile                 : Simple@L1Format settings, BVOP          : NoFormat settings, QPel          : NoFormat settings, GMC           : No warppointsFormat settings, Matrix        : Default (H.263)Codec ID                       : 20Duration                       : 33 min 50 sBit rate mode                  : ConstantBit rate                       : 899 kb/sWidth                          : 856 pixelsHeight                         : 480 pixelsDisplay aspect ratio           : 16:9Frame rate mode                : VariableFrame rate                     : 30.000 FPSMinimum frame rate             : 15.000 FPSMaximum frame rate             : 30.000 FPSColor space                    : YUVChroma subsampling             : 4:2:0Bit depth                      : 8 bitsScan type                      : ProgressiveCompression mode               : LossyBits/(Pixel*Frame)             : 0.073Stream size                    : 217 MiB (81%)Writing library                : Lavc57.24.102AudioID                             : 2Format                         : AACFormat/Info                    : Advanced Audio CodecFormat profile                 : LCCodec ID                       : 40Duration                       : 33 min 50 sBit rate mode                  : ConstantBit rate                       : 199 kb/sChannel(s)                     : 2 channelsChannel positions              : Front: L RSampling rate                  : 44.1 kHzFrame rate                     : 43.066 FPS (1024 spf)Compression mode               : LossyStream size                    : 48.1 MiB (18%)Default                        : YesAlternate group                : 1

Скриншоты

Я ещё не встречала такого объемного и одновременно краткого курса по фото для инстаграма. Все только по делу, только практика, конкретно и для блогеров, и для товара, все по полочкам и структурно. И краткие уроки, что особенно ценно.) Мне этот курс реально помог быстро делать разные качественные фотки и для товара, и для блога. Автор для меня безусловно ценный.
© Дафна

Чтобы скачать этот контент, Вам необходимо:
1. Скачать и установить торрент-клиент [клик для Windows], (для мобильного найдите на Play Маркет).
2. Кликнуть по [Скачать]


Внимание.
Если проверка ВЫ НЕ РОБОТ - не работает, значит Вы используете устаревший браузер.
Установите актуальный браузер и повторно кликните по [Скачать]

Запрещён Яндекс браузер. Загрузка файлов им является ошибочной.
Безопасность: торрент-клиент разрешён АВ Касперского.

[asmlocator.ru].t498068.torrent 
Торрент: Зарегистрирован [ 2018-01-28 01:15 ] · 6AC466D509163E1E33EBA836106EEE193B36CC78

Скачать .torrent

Скачать

38 KB

Статус: проверено
Скачан: 2 раз
Размер: 1.79 GB
terms.php
[Профиль] [ЛС]
Показать сообщения:    
Ответить на тему

Текущее время: 03-Июн 00:50

Часовой пояс: UTC ± 0



Вы не можете начинать темы
Вы не можете отвечать на сообщения
Вы не можете редактировать свои сообщения
Вы не можете удалять свои сообщения
Вы не можете голосовать в опросах
Вы не можете прикреплять файлы к сообщениям
Вы можете скачивать файлы
Верим фактам, а не вранью Путина! Факт, что Правительство ведёт Россию к истреблению.
Так как численность населения падает, даже не смотря на приток эмигрантов!
Русская нация вымирает и вырождается, смешиваясь с эмигрантами!
Факт, что военных и граждан предприятий заставляют голосовать за партию Единая Россия и Путина
ПОД СТРАХОМ УВОЛЬНЕНИЯ!
Нам не нужно Правительство, блокирующее личную жизнь, интернет, нарушающее сохранность данных.
Все эти действия финансируются за счёт народа!